<?xml version="1.0" standalone="no"?>
<!DOCTYPE svg PUBLIC "-//W3C//DTD SVG 1.1//EN" "http://www.w3.org/Graphics/SVG/1.1/DTD/svg11.dtd" >
<svg>
<metadata>
Created by FontForge 20090622 at Thu Dec  7 11:25:59 2017
 By deploy user
&#194;&#169; 2011 The Monotype Corporation. All Rights Reserved. Impact is a trademark of Stephenson Blake (Holdings) Ltd.
</metadata>
<defs>
<font id="Impact" horiz-adv-x="1451" >
  <font-face 
    font-family="Impact"
    font-weight="400"
    font-stretch="condensed"
    units-per-em="2048"
    panose-1="2 11 8 6 3 9 2 5 2 4"
    ascent="1638"
    descent="-410"
    x-height="1327"
    cap-height="1620"
    bbox="-265 -677 2894 2392"
    underline-thickness="102"
    underline-position="-154"
    unicode-range="U+0020-U+FB04"
  />
<missing-glyph horiz-adv-x="1536" 
d="M256 0v1280h1024v-1280h-1024zM288 32h960v1216h-960v-1216z" />
    <glyph glyph-name=".notdef" horiz-adv-x="1536" 
d="M256 0v1280h1024v-1280h-1024zM288 32h960v1216h-960v-1216z" />
    <glyph glyph-name="glyph1" horiz-adv-x="0" 
 />
    <glyph glyph-name="glyph2" horiz-adv-x="361" 
 />
    <glyph glyph-name="space" unicode=" " horiz-adv-x="361" 
 />
    <glyph glyph-name="exclam" unicode="!" horiz-adv-x="553" 
d="M516 1619l-66 -1219h-312l-66 1219h444zM483 324v-324h-378v324h378z" />
    <glyph glyph-name="quotedbl" unicode="&#x22;" horiz-adv-x="757" 
d="M89 1098l-53 273v248h306v-248l-46 -273h-207zM468 1098l-53 273v248h306v-248l-47 -273h-206z" />
    <glyph glyph-name="numbersign" unicode="#" horiz-adv-x="1283" 
d="M36 1061h308l84 383h189l-84 -383h355l82 383h189l-82 -383h170v-190h-206l-63 -302h269v-189h-305l-82 -380h-190l83 380h-359l-78 -380h-191l81 380h-170v189h209l63 302h-272v190zM497 871l-63 -301h356l62 301h-355z" />
    <glyph glyph-name="dollar" unicode="$" horiz-adv-x="1121" 
d="M1019 1147h-404v67q0 107 -14 140t-60 33q-37 0 -55.5 -28.5t-18.5 -85.5q0 -95 38 -133q37 -38 218 -148q154 -93 210 -142.5t94.5 -140t38.5 -225.5q0 -216 -104 -339t-312 -152v-152h-186v157q-162 16 -283 124.5t-121 378.5v79h404v-99q0 -163 12.5 -202.5
t60.5 -39.5q41 0 61 27.5t20 81.5q0 136 -19 194.5t-130 127.5q-185 116 -251.5 170.5t-115 153.5t-48.5 224q0 181 102.5 284t307.5 127v129h186v-129q187 -24 280 -125.5t93 -280.5q0 -25 -4 -76z" />
    <glyph glyph-name="percent" unicode="%" horiz-adv-x="1419" 
d="M1103 1650l-633 -1681h-154l635 1681h152zM632 1343v-278q0 -109 -20.5 -163.5t-88 -95t-178.5 -40.5q-128 0 -195 38.5t-90.5 92.5t-23.5 155v291q0 120 24.5 177.5t94.5 93.5t173 36q114 0 185 -39.5t95 -95.5t24 -172zM376 1414q0 64 -6.5 79t-35.5 15q-27 0 -35 -16
t-8 -78v-408q0 -70 7 -84t37 -14q26 0 33.5 16t7.5 75v415zM1383 561v-279q0 -108 -20.5 -163t-88 -95.5t-178.5 -40.5q-127 0 -194.5 39t-91 93t-23.5 154v292q0 119 24.5 176.5t94.5 94t173 36.5q115 0 186 -40t94.5 -96t23.5 -171zM1127 631q0 64 -6.5 79.5t-35.5 15.5
q-27 0 -34.5 -16t-7.5 -79v-408q0 -69 7 -83t36 -14q27 0 34 15.5t7 75.5v414z" />
    <glyph glyph-name="ampersand" unicode="&#x26;" horiz-adv-x="1180" 
d="M1152 615v-273l-114 -72l142 -270h-373l-49 90q-188 -124 -356 -124q-176 0 -271 117t-95 282q0 132 56 207t168 122q-160 115 -160 311q0 169 114 272t314 103q180 0 283.5 -101t103.5 -257q0 -164 -126 -291l143 -258zM529 899q68 89 68 170q0 35 -20 64t-56 29
q-33 0 -50 -22t-17 -67q0 -94 75 -174zM620 273l-131 218q-75 -68 -75 -147q0 -57 23.5 -85.5t69.5 -28.5q49 0 113 43z" />
    <glyph glyph-name="quotesingle" unicode="'" horiz-adv-x="379" 
d="M89 1098l-53 273v248h306v-248l-46 -273h-207z" />
    <glyph glyph-name="parenleft" unicode="(" horiz-adv-x="642" 
d="M605 1619v-211q-83 0 -107.5 -7t-36 -32.5t-11.5 -144.5v-829q0 -111 9 -138.5t33.5 -36.5t112.5 -9v-211h-127q-176 0 -258.5 32.5t-109 95.5t-26.5 268v827q0 204 26 268t111 96t257 32h127z" />
    <glyph glyph-name="parenright" unicode=")" horiz-adv-x="642" 
d="M36 1619h127q172 0 257 -32t111 -96t26 -268v-827q0 -205 -26 -268t-109 -95.5t-259 -32.5h-127v211q89 0 113 9t33.5 36.5t9.5 138.5v829q0 119 -12 144.5t-36.5 32.5t-107.5 7v211z" />
    <glyph glyph-name="asterisk" unicode="*" horiz-adv-x="575" 
d="M352 1619v-161l148 51l45 -118l-148 -62l93 -132l-100 -74l-101 133l-99 -133l-105 74l94 137l-149 57l43 118l153 -51v161h126z" />
    <glyph glyph-name="plus" unicode="+" horiz-adv-x="1092" 
d="M64 930h359v360h244v-360h361v-244h-361v-358h-244v358h-359v244z" />
    <glyph glyph-name="comma" unicode="," horiz-adv-x="344" 
d="M307 317v-145q0 -114 -27 -187t-93.5 -124t-150.5 -68v116q60 34 68 91h-68v317h271z" />
    <glyph glyph-name="hyphen" unicode="-" horiz-adv-x="603" 
d="M567 803v-279h-531v279h531z" />
    <glyph glyph-name="hyphen" unicode="&#xad;" horiz-adv-x="603" 
d="M567 803v-279h-531v279h531z" />
    <glyph glyph-name="period" unicode="." horiz-adv-x="378" 
d="M341 330v-330h-305v330h305z" />
    <glyph glyph-name="slash" unicode="/" horiz-adv-x="810" 
d="M798 1650l-480 -1681h-306l483 1681h303z" />
    <glyph glyph-name="zero" unicode="0" horiz-adv-x="1098" 
d="M1025 1071v-540q0 -184 -20 -268t-83 -157t-152 -105t-199 -32q-145 0 -241 33.5t-153 104.5t-81 149.5t-24 249.5v565q0 223 38.5 334t153 178t277.5 67q133 0 238 -46.5t157 -113.5t70.5 -151t18.5 -268zM621 1207q0 129 -12.5 161.5t-58.5 32.5q-45 0 -59.5 -34.5
t-14.5 -159.5v-790q0 -141 13.5 -170t58.5 -29t59 34t14 153v802z" />
    <glyph glyph-name="one" unicode="1" horiz-adv-x="780" 
d="M695 1619v-1619h-404v868q0 188 -9 226t-49.5 57.5t-180.5 19.5h-40v189q293 63 445 259h238z" />
    <glyph glyph-name="two" unicode="2" horiz-adv-x="1028" 
d="M943 276v-276h-889v231q395 646 469.5 799.5t74.5 239.5q0 66 -22.5 98.5t-68.5 32.5t-68.5 -36t-22.5 -143v-154h-362v59q0 136 14 214.5t69 154.5t143 115t211 39q241 0 364.5 -119.5t123.5 -302.5q0 -139 -69.5 -294t-409.5 -658h443z" />
    <glyph glyph-name="three" unicode="3" horiz-adv-x="1086" 
d="M831 917q92 -31 137 -101.5t45 -330.5q0 -193 -44 -299.5t-152 -162t-277 -55.5q-192 0 -301.5 64.5t-144 158t-34.5 324.5v128h404v-263q0 -105 12.5 -133.5t55.5 -28.5q47 0 62 36t15 188v112q0 93 -21 136t-62 56.5t-159 15.5v235q144 0 178 11t49 48t15 116v90
q0 85 -17.5 112t-54.5 27q-42 0 -57.5 -28.5t-15.5 -121.5v-133h-404v138q0 232 106 313.5t337 81.5q289 0 392 -113t103 -314q0 -136 -37 -196.5t-130 -110.5z" />
    <glyph glyph-name="four" unicode="4" horiz-adv-x="1023" 
d="M896 1619v-1058h115v-276h-115v-285h-404v285h-480v276l349 1058h535zM492 561v689l-178 -689h178z" />
    <glyph glyph-name="five" unicode="5" horiz-adv-x="1099" 
d="M954 1619v-259h-501v-275q94 111 242 111q167 0 252.5 -93.5t85.5 -359.5v-231q0 -172 -16.5 -252.5t-70.5 -149t-150.5 -105t-235.5 -36.5q-156 0 -275 54.5t-169 162.5t-50 334v88h404v-101q0 -157 11 -223t76 -66q30 0 48.5 19t20 41t3.5 191v321q0 91 -19 124t-63 33
q-28 0 -47 -17t-24.5 -36.5t-5.5 -90.5h-400l17 816h867z" />
    <glyph glyph-name="six" unicode="6" horiz-adv-x="1109" 
d="M1042 1189h-404q0 113 -2.5 142.5t-24 49.5t-58.5 20q-31 0 -51 -19t-23 -49t-3 -121v-258q31 65 91 97.5t148 32.5q111 0 196 -60t108 -144t23 -227v-129q0 -170 -13 -253t-69.5 -153.5t-155 -109.5t-229.5 -39q-163 0 -267 45t-160.5 129.5t-66 177.5t-9.5 361v224
q0 289 8.5 386.5t69.5 184.5t166.5 130.5t243.5 43.5q170 0 279 -55t156 -155t47 -252zM638 684q0 86 -19 118t-62 32q-42 0 -61.5 -30.5t-19.5 -119.5v-293q0 -107 18.5 -140t61.5 -33q26 0 54 25.5t28 137.5v303z" />
    <glyph glyph-name="seven" unicode="7" horiz-adv-x="802" 
d="M784 1619v-353l-258 -1266h-402l287 1328h-399v291h772z" />
    <glyph glyph-name="eight" unicode="8" horiz-adv-x="1095" 
d="M843 918q89 -36 137 -107.5t48 -340.5q0 -196 -38 -289t-148 -152.5t-295 -59.5q-180 0 -285 57t-150.5 151t-45.5 313q0 147 22.5 255t141.5 173q-75 36 -112.5 114.5t-37.5 199.5q0 209 116 313.5t347 104.5q267 0 369 -111t102 -317q0 -131 -33.5 -189t-137.5 -115z
M616 1266q0 82 -14.5 108.5t-55.5 26.5q-40 0 -54 -28.5t-14 -106.5v-123q0 -73 16 -101t54 -28q40 0 54 27.5t14 113.5v111zM624 593q0 93 -19 123.5t-60 30.5q-40 0 -57.5 -29.5t-17.5 -124.5v-210q0 -105 19.5 -135t61.5 -30q43 0 58 30.5t15 137.5v207z" />
    <glyph glyph-name="nine" unicode="9" horiz-adv-x="1109" 
d="M72 430h404q0 -113 3 -142.5t24.5 -49.5t58.5 -20q31 0 51 19t22.5 49t2.5 121v258q-30 -65 -90 -97.5t-149 -32.5q-111 0 -196 60t-108 144t-23 227v129q0 170 13.5 253t69.5 153.5t155 109.5t230 39q162 0 266 -45t161 -129.5t66 -177.5t9 -360v-225q0 -289 -8 -386.5
t-69.5 -184.5t-166.5 -130.5t-243 -43.5q-171 0 -279.5 55t-156 155t-47.5 252zM476 935q0 -102 26.5 -126t54.5 -24q42 0 61.5 30.5t19.5 119.5v293q0 107 -18.5 140t-61.5 33q-26 0 -54 -25.5t-28 -137.5v-303z" />
    <glyph glyph-name="colon" unicode=":" horiz-adv-x="414" 
d="M377 1054v-329h-305v329h305zM377 330v-330h-305v330h305z" />
    <glyph glyph-name="semicolon" unicode=";" horiz-adv-x="414" 
d="M377 1054v-329h-305v329h305zM360 317v-145q0 -114 -27 -187t-93.5 -124t-150.5 -68v116q60 34 68 91h-68v317h271z" />
    <glyph glyph-name="semicolon" unicode="&#x37e;" horiz-adv-x="414" 
d="M377 1054v-329h-305v329h305zM360 317v-145q0 -114 -27 -187t-93.5 -124t-150.5 -68v116q60 34 68 91h-68v317h271z" />
    <glyph glyph-name="less" unicode="&#x3c;" horiz-adv-x="1092" 
d="M1027 324l-962 401v203l962 402v-264l-594 -239l594 -238v-265z" />
    <glyph glyph-name="equal" unicode="=" horiz-adv-x="1092" 
d="M65 1122h962v-244h-962v244zM65 740h962v-244h-962v244z" />
    <glyph glyph-name="greater" unicode="&#x3e;" horiz-adv-x="1092" 
d="M65 1330l962 -400v-204l-962 -402v264l594 239l-594 238v265z" />
    <glyph glyph-name="question" unicode="?" horiz-adv-x="1075" 
d="M488 1097h-404q2 213 36 311t147.5 171.5t289.5 73.5q127 0 222 -40t151 -111.5t82 -154.5t26 -260v-198q0 -135 -25 -217t-109 -144t-197 -62q-147 0 -219 115v-174h-377v445h368q2 -92 66 -92q50 0 63.5 40.5t13.5 198.5v269q0 89 -12.5 119.5t-49.5 30.5
q-46 0 -59 -40.5t-13 -182.5v-98zM488 324v-324h-377v324h377z" />
    <glyph glyph-name="at" unicode="@" horiz-adv-x="1587" 
d="M1193 1308l-127 -792q-4 -26 -4 -35q0 -39 37 -39q60 0 130.5 57.5t123 170.5t52.5 264q0 255 -153.5 412.5t-402.5 157.5q-289 0 -477 -199.5t-188 -532.5q0 -321 183.5 -509.5t467.5 -188.5q140 0 266 47t239 140h210q-130 -166 -322.5 -251t-391.5 -85
q-341 0 -570.5 230.5t-229.5 607.5q0 374 214 632t595 258q227 0 371 -87.5t240.5 -244t96.5 -387.5q0 -307 -171 -483.5t-343 -176.5q-129 0 -157 116q-68 -66 -117.5 -91.5t-118.5 -25.5q-149 0 -239 116t-90 310q0 250 125.5 444.5t305.5 194.5q72 0 130 -36t101 -108
l16 114h198zM525 642q0 -94 40 -159t107 -65q65 0 114.5 51t91.5 209.5t42 302.5q0 90 -38 145.5t-103 55.5q-122 0 -188 -171.5t-66 -368.5z" />
    <glyph glyph-name="A" unicode="A" horiz-adv-x="1040" 
d="M811 1619l241 -1619h-431l-21 291h-151l-25 -291h-436l214 1619h609zM588 578q-32 275 -64 679q-64 -464 -80 -679h144z" />
    <glyph glyph-name="B" unicode="B" horiz-adv-x="1131" 
d="M84 1619h420q199 0 301.5 -31t165.5 -125.5t63 -304.5q0 -142 -44.5 -198t-175.5 -86q146 -33 198 -109.5t52 -234.5v-150q0 -164 -37.5 -243t-119.5 -108t-336 -29h-487v1619zM505 1342v-360q27 1 42 1q62 0 79 30.5t17 174.5q0 76 -14 106.5t-36.5 38.5t-87.5 9z
M505 730v-453q89 3 113.5 28t24.5 123v151q0 104 -22 126t-116 25z" />
    <glyph glyph-name="C" unicode="C" horiz-adv-x="1134" 
d="M1067 913h-421v282q0 123 -13.5 153.5t-59.5 30.5q-52 0 -66 -37t-14 -160v-752q0 -118 14 -154t63 -36q47 0 61.5 36t14.5 169v203h421v-63q0 -251 -35.5 -356t-157 -184t-299.5 -79q-185 0 -305 67t-159 185.5t-39 356.5v473q0 175 12 262.5t71.5 168.5t165 127.5
t242.5 46.5q186 0 307 -72t159 -179.5t38 -334.5v-154z" />
    <glyph glyph-name="D" unicode="D" horiz-adv-x="1132" 
d="M84 1619h315q305 0 412.5 -28t163.5 -92t70 -142.5t14 -308.5v-567q0 -218 -20.5 -291.5t-71.5 -115t-126 -58t-226 -16.5h-531v1619zM505 1342v-1065q91 0 112 36.5t21 198.5v629q0 110 -7 141t-32 45.5t-94 14.5z" />
    <glyph glyph-name="E" unicode="E" horiz-adv-x="851" 
d="M84 1619h702v-324h-281v-307h263v-308h-263v-356h309v-324h-730v1619z" />
    <glyph glyph-name="F" unicode="F" horiz-adv-x="815" 
d="M84 1619h713v-324h-292v-307h260v-308h-260v-680h-421v1619z" />
    <glyph glyph-name="G" unicode="G" horiz-adv-x="1129" 
d="M1050 1023h-421v147q0 139 -12 174t-57 35q-39 0 -53 -30t-14 -154v-777q0 -109 14 -143.5t56 -34.5q46 0 62.5 39t16.5 152v192h-85v246h493v-869h-265l-39 116q-43 -75 -108.5 -112.5t-154.5 -37.5q-106 0 -198.5 51.5t-140.5 127.5t-60 159.5t-12 250.5v481
q0 232 25 337t143.5 192.5t306.5 87.5q185 0 307 -76t159 -180.5t37 -303.5v-70z" />
    <glyph glyph-name="H" unicode="H" horiz-adv-x="1137" 
d="M1052 1619v-1619h-421v680h-126v-680h-421v1619h421v-579h126v579h421z" />
    <glyph glyph-name="I" unicode="I" horiz-adv-x="590" 
d="M505 1619v-1619h-421v1619h421z" />
    <glyph glyph-name="J" unicode="J" horiz-adv-x="678" 
d="M599 1619v-1082q0 -243 -5 -312.5t-45.5 -125.5t-110 -77.5t-209.5 -21.5h-211v283q38 -3 55 -3q45 0 71 22t30 54t4 124v1139h421z" />
    <glyph glyph-name="K" unicode="K" horiz-adv-x="1099" 
d="M1087 1619l-241 -731l264 -888h-435l-170 694v-694h-421v1619h421v-629l187 629h395z" />
    <glyph glyph-name="L" unicode="L" horiz-adv-x="779" 
d="M505 1619v-1295h256v-324h-677v1619h421z" />
    <glyph glyph-name="M" unicode="M" horiz-adv-x="1468" 
d="M1383 1619v-1619h-368v1093l-147 -1093h-261l-155 1068v-1068h-368v1619h545q24 -146 51 -344l58 -412l96 756h549z" />
    <glyph glyph-name="N" unicode="N" horiz-adv-x="1109" 
d="M1024 1619v-1619h-369l-219 736v-736h-352v1619h352l236 -729v729h352z" />
    <glyph glyph-name="O" unicode="O" horiz-adv-x="1119" 
d="M1046 671q0 -244 -11.5 -345.5t-72 -185.5t-163.5 -129t-240 -45q-130 0 -233.5 42.5t-166.5 127.5t-75 185t-12 350v277q0 244 11.5 345.5t72 185.5t163.5 129t240 45q130 0 233.5 -42.5t166.5 -127.5t75 -185t12 -350v-277zM625 1203q0 113 -12.5 144.5t-51.5 31.5
q-33 0 -50.5 -25.5t-17.5 -150.5v-756q0 -141 11.5 -174t53.5 -33q43 0 55 38t12 181v744z" />
    <glyph glyph-name="P" unicode="P" horiz-adv-x="1028" 
d="M84 1619h424q172 0 264.5 -27t139 -78t63 -123.5t16.5 -224.5v-141q0 -155 -32 -226t-117.5 -109t-223.5 -38h-113v-652h-421v1619zM505 1342v-412q18 -1 31 -1q58 0 80.5 28.5t22.5 118.5v133q0 83 -26 108t-108 25z" />
    <glyph glyph-name="Q" unicode="Q" horiz-adv-x="1119" 
d="M1047 0v-196h-318q-115 0 -162 17.5t-63.5 52.5t-16.5 126q-143 4 -246 75t-136 180.5t-33 327.5v501q0 165 19.5 251.5t80.5 163t157 115.5t213 39q141 0 251.5 -48t165 -122t71 -153.5t16.5 -236.5v-526q0 -216 -21 -293t-80.5 -122.5t-158.5 -69.5q3 -54 22.5 -68
t92.5 -14h146zM625 1203q0 113 -12.5 144.5t-51.5 31.5q-33 0 -50.5 -25.5t-17.5 -150.5v-756q0 -141 11.5 -174t53.5 -33q43 0 55 38t12 181v744z" />
    <glyph glyph-name="R" unicode="R" horiz-adv-x="1103" 
d="M84 1619h298q298 0 403.5 -23t172 -117.5t66.5 -301.5q0 -189 -47 -254t-185 -78q125 -31 168 -83t53.5 -95.5t10.5 -239.5v-427h-391v538q0 130 -20.5 161t-107.5 31v-730h-421v1619zM505 1342v-360q71 0 99.5 19.5t28.5 126.5v89q0 77 -27.5 101t-100.5 24z" />
    <glyph glyph-name="S" unicode="S" horiz-adv-x="1059" 
d="M976 1129h-391v120q0 84 -15 107t-50 23q-38 0 -57.5 -31t-19.5 -94q0 -81 22 -122q21 -41 119 -99q281 -167 354 -274t73 -345q0 -173 -40.5 -255t-156.5 -137.5t-270 -55.5q-169 0 -288.5 64t-156.5 163t-37 281v106h391v-197q0 -91 16.5 -117t58.5 -26t62.5 33
t20.5 98q0 143 -39 187q-40 44 -197 147q-157 104 -208 151t-84.5 130t-33.5 212q0 186 47.5 272t153.5 134.5t256 48.5q164 0 279.5 -53t153 -133.5t37.5 -273.5v-64z" />
    <glyph glyph-name="T" unicode="T" horiz-adv-x="944" 
d="M932 1619v-324h-250v-1295h-421v1295h-249v324h920z" />
    <glyph glyph-name="U" unicode="U" horiz-adv-x="1120" 
d="M1041 1619v-1082q0 -184 -12 -258.5t-71 -153t-155.5 -119t-227.5 -40.5q-145 0 -256 48t-166 125t-65 162.5t-10 359.5v958h421v-1214q0 -106 11.5 -135.5t46.5 -29.5q40 0 51.5 32.5t11.5 153.5v1193h421z" />
    <glyph glyph-name="V" unicode="V" horiz-adv-x="1072" 
d="M1084 1619l-214 -1619h-639l-243 1619h444q77 -669 110 -1131q33 467 69 830l29 301h444z" />
    <glyph glyph-name="W" unicode="W" horiz-adv-x="1668" 
d="M1668 1619l-187 -1619h-526q-72 373 -127 848q-25 -203 -117 -848h-523l-188 1619h409l43 -565l44 -545q23 423 116 1110h438q9 -71 46 -534l46 -615q35 587 117 1149h409z" />
    <glyph glyph-name="X" unicode="X" horiz-adv-x="988" 
d="M937 1619l-147 -716l222 -903h-390q-70 242 -128 589q-16 -153 -44 -325l-40 -264h-410l152 903l-152 716h407q11 -67 44 -223q26 -119 43 -218l90 441h353z" />
    <glyph glyph-name="Y" unicode="Y" horiz-adv-x="969" 
d="M981 1619l-307 -1033v-586h-390v586l-296 1033h387q91 -473 102 -637q35 259 117 637h387z" />
    <glyph glyph-name="Z" unicode="Z" horiz-adv-x="813" 
d="M788 1619v-324l-314 -971h314v-324h-776v235l324 1060h-286v324h738z" />
    <glyph glyph-name="bracketleft" unicode="[" horiz-adv-x="578" 
d="M541 1619v-249h-91v-1121h91v-249h-457v1619h457z" />
    <glyph glyph-name="backslash" unicode="\" horiz-adv-x="810" 
d="M12 1650h303l483 -1681h-305z" />
    <glyph glyph-name="bracketright" unicode="]" horiz-adv-x="578" 
d="M36 0v249h91v1121h-91v249h457v-1619h-457z" />
    <glyph glyph-name="asciicircum" unicode="^" horiz-adv-x="990" 
d="M12 820l376 799h223l366 -799h-284l-198 489l-197 -489h-286z" />
    <glyph glyph-name="underscore" unicode="_" horiz-adv-x="1131" 
d="M-12 -154h1155v-102h-1155v102z" />
    <glyph glyph-name="grave" unicode="`" horiz-adv-x="683" 
d="M0 1772h356l176 -271h-203z" />
    <glyph glyph-name="a" unicode="a" horiz-adv-x="1032" 
d="M433 813h-379v89q0 154 35.5 237.5t142.5 147.5t278 64q205 0 309 -72.5t125 -178t21 -434.5v-666h-393v118q-37 -71 -95.5 -106.5t-139.5 -35.5q-106 0 -194.5 59.5t-88.5 260.5v109q0 149 47 203t233 126q199 78 213 105t14 110q0 104 -15.5 135.5t-51.5 31.5
q-41 0 -51 -26.5t-10 -137.5v-139zM561 631q-97 -71 -112.5 -119t-15.5 -138q0 -103 13.5 -133t53.5 -30q38 0 49.5 23.5t11.5 123.5v273z" />
    <glyph glyph-name="b" unicode="b" horiz-adv-x="1064" 
d="M476 1619v-383q50 58 111.5 86.5t133.5 28.5q83 0 144 -26t93 -73t38.5 -92t6.5 -192v-598q0 -146 -19.5 -217.5t-91.5 -124t-171 -52.5q-71 0 -132.5 31t-112.5 93l-26 -100h-378v1619h404zM599 950q0 103 -13 134.5t-51 31.5q-37 0 -48 -27.5t-11 -138.5v-572
q0 -107 12.5 -137t49.5 -30q38 0 49.5 31t11.5 149v559z" />
    <glyph glyph-name="c" unicode="c" horiz-adv-x="1013" 
d="M965 826h-381v153q0 80 -13 108.5t-48 28.5t-47 -25t-12 -112v-626q0 -71 18 -106.5t53 -35.5q41 0 55.5 37t14.5 140v158h360q-1 -159 -11.5 -238.5t-67 -163t-147.5 -126t-225 -42.5q-171 0 -271 58.5t-141.5 164t-41.5 299.5v377q0 169 34 255t145 153.5t270 67.5
q158 0 270 -67t149 -169t37 -289z" />
    <glyph glyph-name="d" unicode="d" horiz-adv-x="1064" 
d="M991 1619v-1619h-404v96q-58 -60 -122 -90t-134 -30q-94 0 -163 49.5t-88.5 114.5t-19.5 212v621q0 153 19.5 217t89.5 112.5t167 48.5q75 0 137.5 -27t113.5 -81v376h404zM587 993q0 73 -12.5 98t-49.5 25q-36 0 -48.5 -22.5t-12.5 -100.5v-650q0 -81 12 -106.5
t46 -25.5q39 0 52 28.5t13 139.5v614z" />
    <glyph glyph-name="e" unicode="e" horiz-adv-x="1047" 
d="M987 640h-523v-287q0 -90 13 -116t50 -26q46 0 61.5 34.5t15.5 133.5v175h383v-98q0 -123 -15.5 -189t-72.5 -141t-144.5 -112.5t-219.5 -37.5q-128 0 -226 37t-152.5 101.5t-75.5 142t-21 225.5v387q0 174 47 274.5t154 154t246 53.5q170 0 280.5 -64.5t155 -171
t44.5 -299.5v-176zM582 856v97q0 103 -11 133t-45 30q-42 0 -52 -25.5t-10 -137.5v-97h118z" />
    <glyph glyph-name="f" unicode="f" horiz-adv-x="592" 
d="M587 1619v-205q-125 0 -147.5 -11.5t-22.5 -65.5v-42h170v-210h-96v-1085h-404v1085h-83v210h83q0 131 9 175t44.5 78.5t99.5 52.5t199 18h148z" />
    <glyph glyph-name="g" unicode="g" horiz-adv-x="1062" 
d="M990 1327v-1022q0 -207 -9.5 -267.5t-67.5 -128t-161.5 -103t-260.5 -35.5q-193 0 -310 65.5t-121 257.5h392q0 -88 64 -88q46 0 61 27t15 113v100q-52 -47 -109.5 -71t-120.5 -24q-109 0 -179.5 44t-96.5 115.5t-26 203.5v482q0 189 68 272t207 83q76 0 138.5 -31
t111.5 -93l29 100h376zM585 975q0 91 -10.5 116t-46.5 25q-35 0 -49.5 -28.5t-14.5 -112.5v-446q0 -89 11 -115.5t46 -26.5q40 0 52 32t12 145v411z" />
    <glyph glyph-name="h" unicode="h" horiz-adv-x="1073" 
d="M476 1619v-364q52 48 112.5 72t129.5 24q106 0 180.5 -54t91 -124.5t16.5 -257.5v-915h-404v934q0 116 -11.5 149t-51.5 33q-37 0 -50 -34t-13 -135v-947h-404v1619h404z" />
    <glyph glyph-name="i" unicode="i" horiz-adv-x="561" 
d="M488 1619v-211h-416v211h416zM488 1327v-1327h-416v1327h416z" />
    <glyph glyph-name="j" unicode="j" horiz-adv-x="573" 
d="M500 1619v-211h-416v211h416zM500 1327v-1050q0 -185 -7.5 -250.5t-46 -115t-103 -73.5t-193.5 -24h-156v212q72 0 81 16t9 200v1085h416z" />
    <glyph glyph-name="k" unicode="k" horiz-adv-x="979" 
d="M942 1327l-164 -529l213 -798h-389l-126 578v-578h-404v1619h404v-680l126 388h340z" />
    <glyph glyph-name="l" unicode="l" horiz-adv-x="561" 
d="M488 1619v-1619h-416v1619h416z" />
    <glyph glyph-name="m" unicode="m" horiz-adv-x="1579" 
d="M471 1327l-7 -126q47 75 112 112.5t148 37.5q162 0 255 -150q51 75 115 112.5t142 37.5q103 0 170.5 -50t86.5 -122.5t19 -235.5v-943h-392v865q0 170 -11.5 210.5t-53.5 40.5q-43 0 -55.5 -40t-12.5 -211v-865h-392v843q0 195 -9.5 234t-52.5 39q-27 0 -46 -20.5
t-21 -50t-2 -125.5v-920h-392v1327h399z" />
    <glyph glyph-name="n" unicode="n" horiz-adv-x="1071" 
d="M483 1327l-7 -122q44 73 107.5 109.5t146.5 36.5q104 0 170 -49t85 -123.5t19 -248.5v-930h-404v919q0 137 -9 167t-50 30q-43 0 -54 -34.5t-11 -184.5v-897h-404v1327h411z" />
    <glyph glyph-name="o" unicode="o" horiz-adv-x="1047" 
d="M986 861v-325q0 -179 -18 -262.5t-77 -156t-151.5 -107t-212.5 -34.5q-134 0 -227 29.5t-144.5 89t-73.5 144t-22 253.5v340q0 185 40 289t144 167t266 63q136 0 233.5 -40.5t150.5 -105.5t72.5 -134t19.5 -210zM582 961q0 102 -11 128.5t-47 26.5t-48 -26.5t-12 -128.5
v-599q0 -94 12 -122.5t47 -28.5q36 0 47.5 26t11.5 112v612z" />
    <glyph glyph-name="p" unicode="p" horiz-adv-x="1063" 
d="M483 1327l-7 -117q54 71 119 106t142 35q94 0 162.5 -50.5t85.5 -116.5t17 -224v-559q0 -181 -21.5 -257.5t-88 -122t-160.5 -45.5q-75 0 -139 35t-117 104v-304h-404v1516h411zM598 941q0 123 -9 149t-50 26q-40 0 -51.5 -30t-11.5 -145v-550q0 -120 12 -150t52 -30
q39 0 48.5 27.5t9.5 133.5v569z" />
    <glyph glyph-name="q" unicode="q" horiz-adv-x="1061" 
d="M988 1327v-1516h-404v296q-59 -86 -108.5 -108.5t-122.5 -22.5q-106 0 -175.5 50t-93.5 129.5t-24 243.5v585q0 135 18 201.5t86.5 116t162.5 49.5q76 0 140 -34t117 -103l7 113h397zM584 966q0 88 -13.5 119t-48.5 31q-34 0 -46 -27t-12 -123v-591q0 -107 12 -135.5
t49 -28.5q35 0 47 29.5t12 128.5v597z" />
    <glyph glyph-name="r" unicode="r" horiz-adv-x="733" 
d="M476 1327l-16 -174q88 187 255 198v-467q-111 0 -163 -30t-64 -83.5t-12 -246.5v-524h-404v1327h404z" />
    <glyph glyph-name="s" unicode="s" horiz-adv-x="964" 
d="M897 903h-358v72q0 92 -10.5 116.5t-52.5 24.5q-34 0 -51 -22.5t-17 -67.5q0 -61 8.5 -89.5t51 -62.5t174.5 -99q176 -86 231 -162t55 -221q0 -162 -42 -244.5t-140.5 -127t-237.5 -44.5q-154 0 -263.5 48t-150.5 130t-41 248v64h358v-84q0 -107 13.5 -139t53.5 -32
q43 0 60 21.5t17 90.5q0 95 -22 119q-23 24 -235 142q-178 100 -217 181.5t-39 193.5q0 159 42 234.5t142.5 116.5t233.5 41q132 0 224.5 -33.5t142 -88.5t60 -102t10.5 -147v-77z" />
    <glyph glyph-name="t" unicode="t" horiz-adv-x="624" 
d="M498 1504v-209h109v-210h-109v-710q0 -131 13.5 -146t112.5 -15v-214h-163q-138 0 -197 11.5t-104 53t-56 95t-11 251.5v674h-87v210h87v209h405z" />
    <glyph glyph-name="u" unicode="u" horiz-adv-x="1070" 
d="M997 1327v-1327h-411l7 110q-42 -67 -103.5 -100.5t-141.5 -33.5q-91 0 -151 32t-88.5 85t-35.5 110.5t-7 228.5v895h404v-903q0 -155 9.5 -184t51.5 -29q45 0 53.5 30t8.5 193v893h404z" />
    <glyph glyph-name="v" unicode="v" horiz-adv-x="895" 
d="M907 1327l-189 -1327h-527l-203 1327h361l113 -968q13 106 44 520q18 231 40 448h361z" />
    <glyph glyph-name="w" unicode="w" horiz-adv-x="1371" 
d="M1377 1327l-161 -1327h-439q-36 243 -83 640q-16 -174 -45 -352l-45 -288h-439l-171 1327h348q4 -52 88 -759q6 72 90 759h335l82 -759q19 332 92 759h348z" />
    <glyph glyph-name="x" unicode="x" horiz-adv-x="888" 
d="M872 1327l-161 -634l195 -693h-393q-58 262 -88 451q-40 -236 -87 -451h-338l174 693l-174 634h338q81 -406 87 -461q58 339 88 461h359z" />
    <glyph glyph-name="y" unicode="y" horiz-adv-x="918" 
d="M918 1327l-116 -960q-27 -228 -45.5 -311t-61.5 -137t-119.5 -79.5t-244.5 -25.5h-245v212q94 0 121 9.5t27 42.5q0 16 -25 139l-221 1110h367l132 -895l64 895h367z" />
    <glyph glyph-name="z" unicode="z" horiz-adv-x="719" 
d="M701 1327v-294l-298 -767h298v-266h-689v278l305 783h-274v266h658z" />
    <glyph glyph-name="braceleft" unicode="{" horiz-adv-x="757" 
d="M36 538v240q109 1 164 64.5t55 285.5q0 169 12.5 250.5t60.5 136.5t124 79.5t215 24.5h53v-239q-145 0 -173.5 -30t-30.5 -117q-6 -240 -15.5 -312t-44 -137.5t-128.5 -125.5q89 -54 129.5 -129t47.5 -216l15 -291q9 -42 43 -63.5t156 -21.5v-240h-52q-160 0 -247 36.5
t-126 119.5t-39 268q0 204 -14 261t-54 104.5t-151 51.5z" />
    <glyph glyph-name="bar" unicode="|" horiz-adv-x="555" 
d="M169 1619h217v-1884h-217v1884z" />
    <glyph glyph-name="braceright" unicode="}" horiz-adv-x="757" 
d="M720 538q-109 -1 -164 -65t-55 -284q0 -170 -12 -251.5t-60 -136.5t-124 -79.5t-215 -24.5h-53v240q139 0 170.5 29t33.5 118q6 256 18.5 328.5t50 135.5t118.5 110q-86 56 -120 110t-46 117.5t-18 236t-14 197.5t-38.5 43t-155.5 18v239h53q160 0 247 -36.5t126 -119.5
t39 -268q0 -212 15.5 -267t55 -100.5t148.5 -49.5v-240z" />
    <glyph glyph-name="asciitilde" unicode="~" horiz-adv-x="1075" 
d="M1018 787q-158 -131 -284 -131q-86 0 -256 82q-97 47 -142 47q-109 0 -279 -162v277q147 128 289 128q85 0 232 -70q119 -57 169 -57q46 0 98 26.5t173 134.5v-275z" />
    <glyph glyph-name="Adieresis" unicode="&#xc4;" horiz-adv-x="1040" 
d="M811 1619l241 -1619h-431l-21 291h-151l-25 -291h-436l214 1619h609zM588 578q-32 275 -64 679q-64 -464 -80 -679h144zM419 1930v-260h-261v260h261zM856 1930v-260h-261v260h261z" />
    <glyph glyph-name="Aring" unicode="&#xc5;" horiz-adv-x="1040" 
d="M811 1619l241 -1619h-431l-21 291h-151l-25 -291h-436l214 1619h609zM588 578q-32 275 -64 679q-64 -464 -80 -679h144zM507 2066q84 0 147 -60.5t63 -150.5q0 -87 -62 -148.5t-148 -61.5q-88 0 -149.5 61.5t-61.5 148.5t62 149t149 62zM505 1934q-33 0 -57.5 -24
t-24.5 -59q0 -34 24.5 -58t57.5 -24q34 0 58.5 24t24.5 58q0 35 -24.5 59t-58.5 24z" />
    <glyph glyph-name="Ccedilla" unicode="&#xc7;" horiz-adv-x="1134" 
d="M606 -33v-19q54 0 99 -35.5t45 -96.5q0 -76 -62 -131.5t-148 -55.5q-156 0 -199 158h148q14 -42 50 -42q30 0 44.5 15t14.5 45q0 33 -20.5 49.5t-62.5 16.5h-26v100q-171 16 -266.5 93.5t-123 189t-27.5 321.5v473q0 175 12 262.5t71.5 168.5t165 127.5t242.5 46.5
q186 0 307 -72t159 -179.5t38 -334.5v-154h-421v282q0 123 -13.5 153.5t-59.5 30.5q-52 0 -66 -37t-14 -160v-752q0 -118 14 -154t63 -36q47 0 61.5 36t14.5 169v203h421v-63q0 -233 -28 -334.5t-138.5 -187t-294.5 -96.5z" />
    <glyph glyph-name="Eacute" unicode="&#xc9;" horiz-adv-x="851" 
d="M84 1619h702v-324h-281v-307h263v-308h-263v-356h309v-324h-730v1619zM766 1941l-329 -271h-203l176 271h356z" />
    <glyph glyph-name="Ntilde" unicode="&#xd1;" horiz-adv-x="1109" 
d="M1024 1619v-1619h-369l-219 736v-736h-352v1619h352l236 -729v729h352zM976 1860q-46 -101 -113 -141t-118 -40q-71 0 -153 33l-74 29q-71 29 -106 29q-74 0 -122 -100l-158 105q110 194 248 194q72 0 157 -32l62 -23q78 -29 106 -29q83 0 110 90z" />
    <glyph glyph-name="Odieresis" unicode="&#xd6;" horiz-adv-x="1119" 
d="M1046 671q0 -244 -11.5 -345.5t-72 -185.5t-163.5 -129t-240 -45q-130 0 -233.5 42.5t-166.5 127.5t-75 185t-12 350v277q0 244 11.5 345.5t72 185.5t163.5 129t240 45q130 0 233.5 -42.5t166.5 -127.5t75 -185t12 -350v-277zM625 1203q0 113 -12.5 144.5t-51.5 31.5
q-33 0 -50.5 -25.5t-17.5 -150.5v-756q0 -141 11.5 -174t53.5 -33q43 0 55 38t12 181v744zM471 1930v-260h-261v260h261zM908 1930v-260h-261v260h261z" />
    <glyph glyph-name="Udieresis" unicode="&#xdc;" horiz-adv-x="1120" 
d="M1041 1619v-1082q0 -184 -12 -258.5t-71 -153t-155.5 -119t-227.5 -40.5q-145 0 -256 48t-166 125t-65 162.5t-10 359.5v958h421v-1214q0 -106 11.5 -135.5t46.5 -29.5q40 0 51.5 32.5t11.5 153.5v1193h421zM472 1930v-260h-261v260h261zM909 1930v-260h-261v260h261z
" />
    <glyph glyph-name="aacute" unicode="&#xe1;" horiz-adv-x="1032" 
d="M433 813h-379v89q0 154 35.5 237.5t142.5 147.5t278 64q205 0 309 -72.5t125 -178t21 -434.5v-666h-393v118q-37 -71 -95.5 -106.5t-139.5 -35.5q-106 0 -194.5 59.5t-88.5 260.5v109q0 149 47 203t233 126q199 78 213 105t14 110q0 104 -15.5 135.5t-51.5 31.5
q-41 0 -51 -26.5t-10 -137.5v-139zM561 631q-97 -71 -112.5 -119t-15.5 -138q0 -103 13.5 -133t53.5 -30q38 0 49.5 23.5t11.5 123.5v273zM857 1687l-329 -271h-203l176 271h356z" />
    <glyph glyph-name="agrave" unicode="&#xe0;" horiz-adv-x="1032" 
d="M433 813h-379v89q0 154 35.5 237.5t142.5 147.5t278 64q205 0 309 -72.5t125 -178t21 -434.5v-666h-393v118q-37 -71 -95.5 -106.5t-139.5 -35.5q-106 0 -194.5 59.5t-88.5 260.5v109q0 149 47 203t233 126q199 78 213 105t14 110q0 104 -15.5 135.5t-51.5 31.5
q-41 0 -51 -26.5t-10 -137.5v-139zM561 631q-97 -71 -112.5 -119t-15.5 -138q0 -103 13.5 -133t53.5 -30q38 0 49.5 23.5t11.5 123.5v273zM174 1687h356l176 -271h-203z" />
    <glyph glyph-name="acircumflex" unicode="&#xe2;" horiz-adv-x="1032" 
d="M433 813h-379v89q0 154 35.5 237.5t142.5 147.5t278 64q205 0 309 -72.5t125 -178t21 -434.5v-666h-393v118q-37 -71 -95.5 -106.5t-139.5 -35.5q-106 0 -194.5 59.5t-88.5 260.5v109q0 149 47 203t233 126q199 78 213 105t14 110q0 104 -15.5 135.5t-51.5 31.5
q-41 0 -51 -26.5t-10 -137.5v-139zM561 631q-97 -71 -112.5 -119t-15.5 -138q0 -103 13.5 -133t53.5 -30q38 0 49.5 23.5t11.5 123.5v273zM524 1547l-118 -131h-280l257 282h282l241 -282h-271z" />
    <glyph glyph-name="adieresis" unicode="&#xe4;" horiz-adv-x="1032" 
d="M433 813h-379v89q0 154 35.5 237.5t142.5 147.5t278 64q205 0 309 -72.5t125 -178t21 -434.5v-666h-393v118q-37 -71 -95.5 -106.5t-139.5 -35.5q-106 0 -194.5 59.5t-88.5 260.5v109q0 149 47 203t233 126q199 78 213 105t14 110q0 104 -15.5 135.5t-51.5 31.5
q-41 0 -51 -26.5t-10 -137.5v-139zM561 631q-97 -71 -112.5 -119t-15.5 -138q0 -103 13.5 -133t53.5 -30q38 0 49.5 23.5t11.5 123.5v273zM428 1676v-260h-261v260h261zM865 1676v-260h-261v260h261z" />
    <glyph glyph-name="atilde" unicode="&#xe3;" horiz-adv-x="1032" 
d="M433 813h-379v89q0 154 35.5 237.5t142.5 147.5t278 64q205 0 309 -72.5t125 -178t21 -434.5v-666h-393v118q-37 -71 -95.5 -106.5t-139.5 -35.5q-106 0 -194.5 59.5t-88.5 260.5v109q0 149 47 203t233 126q199 78 213 105t14 110q0 104 -15.5 135.5t-51.5 31.5
q-41 0 -51 -26.5t-10 -137.5v-139zM561 631q-97 -71 -112.5 -119t-15.5 -138q0 -103 13.5 -133t53.5 -30q38 0 49.5 23.5t11.5 123.5v273zM938 1606q-46 -101 -113 -141t-118 -40q-71 0 -153 33l-74 29q-71 29 -106 29q-74 0 -122 -100l-158 105q110 194 248 194
q72 0 157 -32l62 -23q78 -29 106 -29q83 0 110 90z" />
    <glyph glyph-name="aring" unicode="&#xe5;" horiz-adv-x="1032" 
d="M433 813h-379v89q0 154 35.5 237.5t142.5 147.5t278 64q205 0 309 -72.5t125 -178t21 -434.5v-666h-393v118q-37 -71 -95.5 -106.5t-139.5 -35.5q-106 0 -194.5 59.5t-88.5 260.5v109q0 149 47 203t233 126q199 78 213 105t14 110q0 104 -15.5 135.5t-51.5 31.5
q-41 0 -51 -26.5t-10 -137.5v-139zM561 631q-97 -71 -112.5 -119t-15.5 -138q0 -103 13.5 -133t53.5 -30q38 0 49.5 23.5t11.5 123.5v273zM516 1837q84 0 147 -60.5t63 -150.5q0 -87 -62 -148.5t-148 -61.5q-88 0 -149.5 61.5t-61.5 148.5t62 149t149 62zM514 1705
q-33 0 -57.5 -24t-24.5 -59q0 -34 24.5 -58t57.5 -24q34 0 58.5 24t24.5 58q0 35 -24.5 59t-58.5 24z" />
    <glyph glyph-name="ccedilla" unicode="&#xe7;" horiz-adv-x="1013" 
d="M546 -23v-29q52 0 98 -35t46 -97q0 -76 -62 -131.5t-148 -55.5q-156 0 -199 158h148q14 -42 50 -42q30 0 44.5 15t14.5 45q0 33 -20.5 49.5t-62.5 16.5h-26v110q-151 18 -225.5 79.5t-109 155.5t-34.5 282v377q0 169 34 255t145 153.5t270 67.5q158 0 270 -67t149 -169
t37 -289h-381v153q0 80 -13 108.5t-48 28.5t-47 -25t-12 -112v-626q0 -71 18 -106.5t53 -35.5q41 0 55.5 37t14.5 140v158h360q-1 -148 -9.5 -226.5t-59.5 -160.5t-133.5 -128t-216.5 -54z" />
    <glyph glyph-name="eacute" unicode="&#xe9;" horiz-adv-x="1047" 
d="M987 640h-523v-287q0 -90 13 -116t50 -26q46 0 61.5 34.5t15.5 133.5v175h383v-98q0 -123 -15.5 -189t-72.5 -141t-144.5 -112.5t-219.5 -37.5q-128 0 -226 37t-152.5 101.5t-75.5 142t-21 225.5v387q0 174 47 274.5t154 154t246 53.5q170 0 280.5 -64.5t155 -171
t44.5 -299.5v-176zM582 856v97q0 103 -11 133t-45 30q-42 0 -52 -25.5t-10 -137.5v-97h118zM865 1687l-329 -271h-203l176 271h356z" />
    <glyph glyph-name="egrave" unicode="&#xe8;" horiz-adv-x="1047" 
d="M987 640h-523v-287q0 -90 13 -116t50 -26q46 0 61.5 34.5t15.5 133.5v175h383v-98q0 -123 -15.5 -189t-72.5 -141t-144.5 -112.5t-219.5 -37.5q-128 0 -226 37t-152.5 101.5t-75.5 142t-21 225.5v387q0 174 47 274.5t154 154t246 53.5q170 0 280.5 -64.5t155 -171
t44.5 -299.5v-176zM582 856v97q0 103 -11 133t-45 30q-42 0 -52 -25.5t-10 -137.5v-97h118zM182 1687h356l176 -271h-203z" />
    <glyph glyph-name="ecircumflex" unicode="&#xea;" horiz-adv-x="1047" 
d="M987 640h-523v-287q0 -90 13 -116t50 -26q46 0 61.5 34.5t15.5 133.5v175h383v-98q0 -123 -15.5 -189t-72.5 -141t-144.5 -112.5t-219.5 -37.5q-128 0 -226 37t-152.5 101.5t-75.5 142t-21 225.5v387q0 174 47 274.5t154 154t246 53.5q170 0 280.5 -64.5t155 -171
t44.5 -299.5v-176zM582 856v97q0 103 -11 133t-45 30q-42 0 -52 -25.5t-10 -137.5v-97h118zM531 1547l-118 -131h-280l257 282h282l241 -282h-271z" />
    <glyph glyph-name="edieresis" unicode="&#xeb;" horiz-adv-x="1047" 
d="M987 640h-523v-287q0 -90 13 -116t50 -26q46 0 61.5 34.5t15.5 133.5v175h383v-98q0 -123 -15.5 -189t-72.5 -141t-144.5 -112.5t-219.5 -37.5q-128 0 -226 37t-152.5 101.5t-75.5 142t-21 225.5v387q0 174 47 274.5t154 154t246 53.5q170 0 280.5 -64.5t155 -171
t44.5 -299.5v-176zM582 856v97q0 103 -11 133t-45 30q-42 0 -52 -25.5t-10 -137.5v-97h118zM435 1676v-260h-261v260h261zM872 1676v-260h-261v260h261z" />
    <glyph glyph-name="iacute" unicode="&#xed;" horiz-adv-x="561" 
d="M488 1327v-1327h-416v1327h416zM625 1687l-329 -271h-203l176 271h356z" />
    <glyph glyph-name="igrave" unicode="&#xec;" horiz-adv-x="561" 
d="M488 1327v-1327h-416v1327h416zM-58 1687h356l176 -271h-203z" />
    <glyph glyph-name="icircumflex" unicode="&#xee;" horiz-adv-x="561" 
d="M488 1327v-1327h-416v1327h416zM292 1547l-118 -131h-280l257 282h282l241 -282h-271z" />
    <glyph glyph-name="idieresis" unicode="&#xef;" horiz-adv-x="561" 
d="M488 1327v-1327h-416v1327h416zM196 1676v-260h-261v260h261zM633 1676v-260h-261v260h261z" />
    <glyph glyph-name="ntilde" unicode="&#xf1;" horiz-adv-x="1071" 
d="M483 1327l-7 -122q44 73 107.5 109.5t146.5 36.5q104 0 170 -49t85 -123.5t19 -248.5v-930h-404v919q0 137 -9 167t-50 30q-43 0 -54 -34.5t-11 -184.5v-897h-404v1327h411zM957 1606q-46 -101 -113 -141t-118 -40q-71 0 -153 33l-74 29q-71 29 -106 29q-74 0 -122 -100
l-158 105q110 194 248 194q72 0 157 -32l62 -23q78 -29 106 -29q83 0 110 90z" />
    <glyph glyph-name="oacute" unicode="&#xf3;" horiz-adv-x="1047" 
d="M986 861v-325q0 -179 -18 -262.5t-77 -156t-151.5 -107t-212.5 -34.5q-134 0 -227 29.5t-144.5 89t-73.5 144t-22 253.5v340q0 185 40 289t144 167t266 63q136 0 233.5 -40.5t150.5 -105.5t72.5 -134t19.5 -210zM582 961q0 102 -11 128.5t-47 26.5t-48 -26.5t-12 -128.5
v-599q0 -94 12 -122.5t47 -28.5q36 0 47.5 26t11.5 112v612zM865 1687l-329 -271h-203l176 271h356z" />
    <glyph glyph-name="ograve" unicode="&#xf2;" horiz-adv-x="1047" 
d="M986 861v-325q0 -179 -18 -262.5t-77 -156t-151.5 -107t-212.5 -34.5q-134 0 -227 29.5t-144.5 89t-73.5 144t-22 253.5v340q0 185 40 289t144 167t266 63q136 0 233.5 -40.5t150.5 -105.5t72.5 -134t19.5 -210zM582 961q0 102 -11 128.5t-47 26.5t-48 -26.5t-12 -128.5
v-599q0 -94 12 -122.5t47 -28.5q36 0 47.5 26t11.5 112v612zM182 1687h356l176 -271h-203z" />
    <glyph glyph-name="ocircumflex" unicode="&#xf4;" horiz-adv-x="1047" 
d="M986 861v-325q0 -179 -18 -262.5t-77 -156t-151.5 -107t-212.5 -34.5q-134 0 -227 29.5t-144.5 89t-73.5 144t-22 253.5v340q0 185 40 289t144 167t266 63q136 0 233.5 -40.5t150.5 -105.5t72.5 -134t19.5 -210zM582 961q0 102 -11 128.5t-47 26.5t-48 -26.5t-12 -128.5
v-599q0 -94 12 -122.5t47 -28.5q36 0 47.5 26t11.5 112v612zM531 1547l-118 -131h-280l257 282h282l241 -282h-271z" />
    <glyph glyph-name="odieresis" unicode="&#xf6;" horiz-adv-x="1047" 
d="M986 861v-325q0 -179 -18 -262.5t-77 -156t-151.5 -107t-212.5 -34.5q-134 0 -227 29.5t-144.5 89t-73.5 144t-22 253.5v340q0 185 40 289t144 167t266 63q136 0 233.5 -40.5t150.5 -105.5t72.5 -134t19.5 -210zM582 961q0 102 -11 128.5t-47 26.5t-48 -26.5t-12 -128.5
v-599q0 -94 12 -122.5t47 -28.5q36 0 47.5 26t11.5 112v612zM435 1676v-260h-261v260h261zM872 1676v-260h-261v260h261z" />
    <glyph glyph-name="otilde" unicode="&#xf5;" horiz-adv-x="1047" 
d="M986 861v-325q0 -179 -18 -262.5t-77 -156t-151.5 -107t-212.5 -34.5q-134 0 -227 29.5t-144.5 89t-73.5 144t-22 253.5v340q0 185 40 289t144 167t266 63q136 0 233.5 -40.5t150.5 -105.5t72.5 -134t19.5 -210zM582 961q0 102 -11 128.5t-47 26.5t-48 -26.5t-12 -128.5
v-599q0 -94 12 -122.5t47 -28.5q36 0 47.5 26t11.5 112v612zM945 1606q-46 -101 -113 -141t-118 -40q-71 0 -153 33l-74 29q-71 29 -106 29q-74 0 -122 -100l-158 105q110 194 248 194q72 0 157 -32l62 -23q78 -29 106 -29q83 0 110 90z" />
    <glyph glyph-name="uacute" unicode="&#xfa;" horiz-adv-x="1070" 
d="M997 1327v-1327h-411l7 110q-42 -67 -103.5 -100.5t-141.5 -33.5q-91 0 -151 32t-88.5 85t-35.5 110.5t-7 228.5v895h404v-903q0 -155 9.5 -184t51.5 -29q45 0 53.5 30t8.5 193v893h404zM876 1687l-329 -271h-203l176 271h356z" />
    <glyph glyph-name="ugrave" unicode="&#xf9;" horiz-adv-x="1070" 
d="M997 1327v-1327h-411l7 110q-42 -67 -103.5 -100.5t-141.5 -33.5q-91 0 -151 32t-88.5 85t-35.5 110.5t-7 228.5v895h404v-903q0 -155 9.5 -184t51.5 -29q45 0 53.5 30t8.5 193v893h404zM193 1687h356l176 -271h-203z" />
    <glyph glyph-name="ucircumflex" unicode="&#xfb;" horiz-adv-x="1070" 
d="M997 1327v-1327h-411l7 110q-42 -67 -103.5 -100.5t-141.5 -33.5q-91 0 -151 32t-88.5 85t-35.5 110.5t-7 228.5v895h404v-903q0 -155 9.5 -184t51.5 -29q45 0 53.5 30t8.5 193v893h404zM543 1547l-118 -131h-280l257 282h282l241 -282h-271z" />
    <glyph glyph-name="udieresis" unicode="&#xfc;" horiz-adv-x="1070" 
d="M997 1327v-1327h-411l7 110q-42 -67 -103.5 -100.5t-141.5 -33.5q-91 0 -151 32t-88.5 85t-35.5 110.5t-7 228.5v895h404v-903q0 -155 9.5 -184t51.5 -29q45 0 53.5 30t8.5 193v893h404zM447 1676v-260h-261v260h261zM884 1676v-260h-261v260h261z" />
    <glyph glyph-name="dagger" unicode="&#x2020;" horiz-adv-x="1112" 
d="M334 1619h444v-468h298v-381h-298v-959h-444v959h-298v380h298v469z" />
    <glyph glyph-name="degree" unicode="&#xb0;" horiz-adv-x="711" 
d="M36 1314q0 142 95 234.5t224 92.5q133 0 226 -93.5t93 -225.5t-93.5 -225.5t-224.5 -93.5q-141 0 -230.5 97.5t-89.5 213.5zM202 1326q0 -68 45.5 -112.5t107.5 -44.5q63 0 108 45t45 108t-45 108t-108 45q-66 0 -109.5 -47t-43.5 -102z" />
    <glyph glyph-name="cent" unicode="&#xa2;" horiz-adv-x="1059" 
d="M1004 922h-404v135q0 116 -12.5 146.5t-55.5 30.5q-41 0 -54.5 -26t-13.5 -137v-621q0 -109 13 -139.5t53 -30.5q50 0 68.5 41t18.5 173v146h387q1 -45 1 -66q0 -239 -89.5 -366t-286.5 -170v-165h-186v165q-132 18 -233 98.5t-125.5 168t-24.5 284.5v298q0 202 25.5 300
t119.5 178.5t238 109.5v137h186v-137q98 -18 178.5 -67.5t126.5 -117.5t58 -136.5t12 -231.5z" />
    <glyph glyph-name="sterling" unicode="&#xa3;" horiz-adv-x="1096" 
d="M999 1098h-362v147q0 98 -3.5 124.5t-24 47t-51.5 20.5q-40 0 -66 -34t-26 -77q0 -55 44 -207q47 -166 48 -198h255v-276h-231q-3 -272 -194 -409q18 2 45 6q30 5 54 5q33 0 92 -10q23 -4 41 -4q40 0 65 25q24 25 24 132q0 16 -1 64h340l-1 -129q0 -145 -21 -208.5
t-94 -105.5t-184 -42q-70 0 -205 34q-131 34 -226 34q-150 0 -245 -68v236q43 29 70.5 73.5t50.5 146t23 176.5q0 16 -1 44h-143v276h99q-84 160 -84 306q0 209 129 316t328 107q213 0 339 -112.5t126 -307.5q0 -53 -10 -132z" />
    <glyph glyph-name="section" unicode="&#xa7;" horiz-adv-x="991" 
d="M877 1273h-319v25q0 50 -20.5 75t-62.5 25q-30 0 -45 -14.5t-15 -44.5q0 -31 31 -67q30 -36 161 -131q235 -170 291.5 -247t56.5 -165q0 -184 -217 -285q86 -89 129 -169.5t43 -153.5q0 -134 -110.5 -242t-306.5 -108q-167 0 -272 90.5t-108 284.5h320q0 -129 79 -129
q32 0 47.5 16.5t15.5 49.5q0 36 -31 71q-31 34 -108 90q-228 163 -314 253.5t-86 196.5q0 165 216 289q-84 76 -126.5 156t-42.5 164q0 131 102.5 240.5t306.5 109.5q162 0 273.5 -83.5t111.5 -296.5zM382 869q-35 -36 -35 -75q0 -29 25 -55.5t129 -100.5l108 -80
q35 32 35 75q0 30 -34.5 64t-140.5 109z" />
    <glyph glyph-name="bullet" unicode="&#x2022;" horiz-adv-x="712" 
d="M651 817q0 -132 -88 -217.5t-207 -85.5q-123 0 -209.5 86.5t-86.5 209.5q0 121 87 208t208 87q130 0 213 -90t83 -198z" />
    <glyph glyph-name="paragraph" unicode="&#xb6;" horiz-adv-x="1180" 
d="M673 -221h-243v1018q-394 44 -394 403q0 117 45 206.5t121.5 139.5t147 61.5t220.5 11.5h597v-261h-113v-1579h-237v1579h-144v-1579z" />
    <glyph glyph-name="germandbls" unicode="&#xdf;" horiz-adv-x="1127" 
d="M902 1023q72 -33 115 -105t43 -286v-149q0 -148 -21 -224t-84 -141.5t-145 -91.5t-202 -26h-77v245h46q55 0 67 18t12 141v396q-1 69 -15 93t-64 31v246q22 0 42 12.5t20 81.5q0 77 -20.5 115.5t-61.5 38.5q-47 0 -64 -34t-17 -135v-1249h-404v1081q0 235 26.5 333.5
t135 168.5t301.5 70q239 0 371.5 -97t132.5 -270q0 -157 -137 -263z" />
    <glyph glyph-name="registered" unicode="&#xae;" horiz-adv-x="1605" 
d="M782 1532q343 0 564.5 -228t221.5 -538q0 -316 -225 -541t-541 -225q-318 0 -542 224.5t-224 541.5q0 223 118.5 409.5t296.5 271.5t331 85zM820 1383q-282 0 -457 -186t-175 -431q0 -254 181 -435t435 -181q253 0 434 181t181 435q0 175 -91 322.5t-234 221t-274 73.5z
M465 357v813h385q143 0 208 -66.5t65 -163.5q0 -94 -54.5 -151t-164.5 -77q50 -19 79.5 -51.5t93.5 -140.5l95 -163h-203l-68 131q-61 117 -107.5 159.5t-121.5 42.5h-43v-333h-164zM629 819h134q101 0 143.5 26.5t42.5 86.5q0 54 -42 81t-127 27h-151v-221z" />
    <glyph glyph-name="copyright" unicode="&#xa9;" horiz-adv-x="1605" 
d="M782 1532q348 0 567 -230t219 -536q0 -316 -225 -541t-541 -225q-318 0 -542 224.5t-224 541.5q0 218 113.5 401t291.5 274t341 91zM818 1381q-276 0 -453.5 -183t-177.5 -432q0 -253 180.5 -434t434.5 -181t434.5 181t180.5 434q0 264 -186.5 439.5t-412.5 175.5z
M988 653l161 -55q-81 -260 -339 -260q-175 0 -279.5 115.5t-104.5 308.5q0 199 106 313.5t274 114.5q256 0 343 -243l-162 -38q-52 139 -178 139q-100 0 -153.5 -75.5t-53.5 -199.5q0 -139 51.5 -215.5t145.5 -76.5q135 0 189 172z" />
    <glyph glyph-name="trademark" unicode="&#x2122;" horiz-adv-x="1603" 
d="M265 800v677h-253v142h665v-142h-246v-677h-166zM738 800v819h259l149 -564l149 564h260v-819h-158v653l-177 -653h-150l-176 653v-653h-156z" />
    <glyph glyph-name="acute" unicode="&#xb4;" horiz-adv-x="683" 
d="M683 1772l-329 -271h-203l176 271h356z" />
    <glyph glyph-name="dieresis" unicode="&#xa8;" horiz-adv-x="683" 
d="M254 1761v-260h-261v260h261zM691 1761v-260h-261v260h261z" />
    <glyph glyph-name="notequal" unicode="&#x2260;" horiz-adv-x="1092" 
d="M65 1122h490l165 419h223l-162 -419h246v-244h-341l-54 -138h395v-244h-490l-166 -419h-226l166 419h-246v244h341l55 138h-396v244z" />
    <glyph glyph-name="AE" unicode="&#xc6;" horiz-adv-x="1461" 
d="M1404 1619v-324h-283v-307h266v-308h-266v-356h303v-324h-724v291h-242l-68 -291h-402l426 1619h990zM700 1316l-179 -738h179v738z" />
    <glyph glyph-name="Oslash" unicode="&#xd8;" horiz-adv-x="1119" 
d="M1026 1340q20 -76 20 -392v-277q0 -244 -11.5 -345.5t-72 -185.5t-163.5 -129t-240 -45q-146 0 -249.5 48t-165.5 143l-107 -140l-92 70l147 192q-20 72 -20 392v277q0 244 11.5 345.5t72 185.5t163.5 129t240 45q145 0 249 -47.5t166 -143.5l107 140l92 -69zM625 987
v216q0 113 -12.5 144.5t-51.5 31.5q-41 0 -54.5 -33.5t-13.5 -142.5v-390zM493 624v-177q0 -141 11.5 -174t53.5 -33q43 0 55 38t12 181v340z" />
    <glyph glyph-name="infinity" unicode="&#x221e;" horiz-adv-x="1460" 
d="M653 809q70 169 158 223t212 54q97 0 180 -43.5t143 -139.5t60 -234q0 -123 -49 -216t-132.5 -148.5t-167.5 -55.5q-79 0 -155 49.5t-182 236.5q-56 -116 -137 -174.5t-187 -58.5q-142 0 -242.5 102t-100.5 267q0 157 88.5 262t218.5 105q77 0 147 -42t146 -187zM749 606
q69 -147 142.5 -205t169.5 -58q129 0 208.5 93t79.5 233q0 145 -86.5 242t-195.5 97q-85 0 -150 -58t-168 -344zM624 732q-45 107 -111.5 160.5t-155.5 53.5q-101 0 -175 -72.5t-74 -201.5q0 -137 72.5 -214.5t157.5 -77.5q63 0 133 51t142 267z" />
    <glyph glyph-name="plusminus" unicode="&#xb1;" horiz-adv-x="1092" 
d="M667 543h-244v355h-359v244h359v360h244v-360h361v-244h-361v-355zM64 423h964v-244h-964v244z" />
    <glyph glyph-name="lessequal" unicode="&#x2264;" horiz-adv-x="1092" 
d="M1027 486l-962 401v203l962 402v-264l-594 -239l594 -238v-265zM64 406h964v-244h-964v244z" />
    <glyph glyph-name="greaterequal" unicode="&#x2265;" horiz-adv-x="1092" 
d="M65 1492l962 -400v-204l-962 -402v265l594 238l-594 238v265zM64 406h964v-244h-964v244z" />
    <glyph glyph-name="yen" unicode="&#xa5;" horiz-adv-x="969" 
d="M792 982h174v-172h-225l-67 -224h292v-171h-292v-415h-390v415h-282v171h282l-64 224h-218v172h168l-182 637h387q91 -473 102 -637q35 259 117 637h387z" />
    <glyph glyph-name="mu1" unicode="&#xb5;" horiz-adv-x="965" 
d="M72 1327h324v-957q0 -141 78 -141q97 0 97 232v866h321v-1327h-306v123q-61 -142 -190 -144v-386h-324v1734z" />
    <glyph glyph-name="partialdiff" unicode="&#x2202;" horiz-adv-x="1003" 
d="M354 1150h-42q52 142 139 213t209 71q100 0 165.5 -46.5t97 -122.5t31.5 -231q0 -344 -95 -586t-209 -356.5t-272 -114.5q-155 0 -235.5 92t-80.5 224q0 231 188.5 436t398.5 205q168 0 236 -150q8 77 8 127q0 110 -42 178t-101 106.5t-170 38.5q-73 0 -129.5 -21
t-96.5 -63zM869 691q-63 192 -214 192q-86 0 -163.5 -90t-125.5 -264.5t-48 -316.5q0 -94 29 -131t91 -37q134 0 259 199t172 448z" />
    <glyph glyph-name="summation" unicode="&#x2211;" 
d="M1351 -83h-1313v36l669 831l-669 816v38h1278l27 -337h-40q-27 256 -249 256h-740l562 -687l-629 -777h818q89 0 180.5 39t129.5 207l40 -8z" />
    <glyph glyph-name="product" unicode="&#x220f;" horiz-adv-x="1685" 
d="M1239 1558h-795v-1448q0 -86 39 -120.5t123 -34.5h36v-38h-597v38h35q93 0 128 37.5t35 117.5v1334q0 85 -38 120t-125 35h-35v37h1594v-37h-35q-86 0 -124 -36t-38 -119v-1334q0 -86 39 -120.5t123 -34.5h35v-38h-597v38h35q93 0 127.5 37.5t34.5 117.5v1448z" />
    <glyph glyph-name="pi1" unicode="&#xf006;" horiz-adv-x="1124" 
d="M1039 935v-207h-215q-36 -291 -36 -423q0 -79 22 -119t65 -40q99 0 118 170h37q-12 -344 -211 -344q-95 0 -143 83t-48 248q0 143 35 425h-198q-32 -517 -84 -636.5t-132 -119.5q-47 0 -76.5 30.5t-29.5 71.5q0 53 56 152q52 94 74.5 198.5t26.5 303.5h-34
q-130 0 -177 -116h-37q36 122 92 202.5t104.5 100.5t158.5 20h632z" />
    <glyph glyph-name="integral" unicode="&#x222b;" horiz-adv-x="561" 
d="M200 895l12 445q9 344 75 433.5t148 89.5q53 0 89 -34.5t36 -72.5q0 -44 -25.5 -74t-66.5 -30q-35 0 -76 36q-23 20 -40 20q-40 0 -40 -63q0 -42 9 -146q37 -411 37 -665q0 -68 -12 -470.5t-77 -493t-151 -90.5q-49 0 -83.5 32.5t-34.5 88.5q0 45 26 72t64 27
q40 0 70 -33q28 -31 48 -31t29.5 15.5t9.5 45.5q0 42 -9 120q-38 317 -38 778z" />
    <glyph glyph-name="ordfeminine" unicode="&#xaa;" horiz-adv-x="665" 
d="M282 1362h-246q0 99 22 150.5t91 92.5t181 41q132 0 199 -42t83 -106t16 -270v-394h-255v69q-25 -44 -63 -66t-89 -22q-92 0 -138.5 49.5t-46.5 148.5v65q0 96 33.5 129.5t182.5 86.5q105 38 109.5 55.5t4.5 43.5q0 65 -9.5 82t-35.5 17q-27 0 -33 -13.5t-6 -78.5v-38z
M366 1209q-56 -41 -69.5 -61.5t-13.5 -85.5q0 -53 8 -69t35 -16q26 0 33 13t7 69v150z" />
    <glyph glyph-name="ordmasculine" unicode="&#xba;" horiz-adv-x="675" 
d="M638 1345v-188q0 -125 -22 -191t-92 -108.5t-188 -42.5q-125 0 -187.5 35.5t-87.5 98.5t-25 182v197q0 184 80.5 251t211.5 67q114 0 185 -40t98 -99.5t27 -161.5zM375 1405q0 60 -6 73.5t-32 13.5q-25 0 -31.5 -14t-6.5 -73v-353q0 -55 7 -69.5t28 -14.5q28 0 34.5 13.5
t6.5 62.5v361z" />
    <glyph glyph-name="Ohm" unicode="&#x2126;" horiz-adv-x="1573" 
d="M617 359l34 -359h-619v377h36q4 -69 33.5 -101t125.5 -32h328l-7 69q-251 53 -358.5 197t-107.5 315q0 231 185 396.5t519 165.5t519 -165.5t185 -396.5q0 -171 -107.5 -315t-358.5 -197l-7 -69h328q65 0 91.5 10t45.5 38t22 85h36v-377h-619l34 359q183 63 183 441
q0 287 -107 398t-245 111q-109 0 -191.5 -63t-121.5 -162.5t-39 -270.5q0 -392 183 -454z" />
    <glyph glyph-name="ae" unicode="&#xe6;" horiz-adv-x="1543" 
d="M1482 640h-527v-268q0 -102 13 -131.5t55 -29.5q45 0 61 30t16 124v189h382v-134q0 -131 -39.5 -221t-143.5 -156.5t-255 -66.5q-140 0 -238 38t-155 114q-55 -76 -130 -114t-169 -38q-110 0 -181.5 45t-94 114t-22.5 226q0 140 20.5 191.5t84.5 92t221 95.5
q83 28 112 47t40 47.5t11 122.5q0 89 -12 124t-45 35q-32 0 -41.5 -29t-9.5 -147v-127h-379v99q0 110 15.5 173t71 126.5t141 101.5t218.5 38q74 0 143 -18t132 -54q46 36 107 54t137 18q152 0 261.5 -66t154.5 -169t45 -305v-171zM1078 856v120q0 93 -17 116.5t-44 23.5
q-33 0 -47.5 -27t-14.5 -113v-120h123zM551 623q-77 -56 -103.5 -101.5t-26.5 -169.5q0 -77 15.5 -109t56.5 -32q29 0 43 20t14 59l1 119v214z" />
    <glyph glyph-name="oslash" unicode="&#xf8;" horiz-adv-x="1047" 
d="M912 1181q39 -53 56.5 -115.5t17.5 -204.5v-325q0 -179 -18 -262.5t-77 -156t-151 -107t-213 -34.5q-114 0 -198 21.5t-137 63.5l-31 -47l-79 51l45 69q-34 56 -50.5 126t-16.5 232v340q0 185 40 289t144 167t266 63q105 0 189 -25t146 -75l41 62l78 -51zM582 835v126
q0 102 -11 128.5t-47 26.5t-48 -26.5t-12 -128.5v-306zM464 481v-119q0 -94 12 -122.5t47 -28.5q36 0 47.5 26t11.5 112v313z" />
    <glyph glyph-name="questiondown" unicode="&#xbf;" horiz-adv-x="1075" 
d="M586 1100v324h377v-324h-377zM586 327h404q-2 -213 -36 -311.5t-147.5 -171.5t-289.5 -73q-127 0 -222 40t-151 111.5t-82 154.5t-26 259v198q0 136 25 217.5t109 143.5t197 62q153 0 219 -114v173h377v-445h-368q-1 93 -66 93q-50 0 -63.5 -40.5t-13.5 -198.5v-270
q0 -88 12.5 -118.5t49.5 -30.5q46 0 59 40t13 183v98z" />
    <glyph glyph-name="exclamdown" unicode="&#xa1;" horiz-adv-x="553" 
d="M69 1100v324h378v-324h-378zM36 -195l66 1219h312l66 -1219h-444z" />
    <glyph glyph-name="logicalnot" unicode="&#xac;" horiz-adv-x="1092" 
d="M64 1126h964v-634h-244v389h-720v245z" />
    <glyph glyph-name="radical" unicode="&#x221a;" horiz-adv-x="1124" 
d="M1050 1869h74l-312 -1947l-496 1021l-198 -91l-34 64l301 151l405 -823z" />
    <glyph glyph-name="florin" unicode="&#x192;" horiz-adv-x="908" 
d="M908 1650l-42 -212q-57 0 -70 -4.5t-20 -44.5q-2 -7 -9 -42l-68 -343h148l-48 -243h-147l-133 -673q-38 -191 -109.5 -254t-276.5 -63h-181l43 213q61 0 70.5 8.5t22.5 74.5l139 694h-139l45 243h144l60 312q35 183 75.5 234t93.5 75.5t188 24.5h214z" />
    <glyph glyph-name="approxequal" unicode="&#x2248;" horiz-adv-x="1075" 
d="M1018 982q-155 -131 -278 -131q-53 0 -101.5 14t-160.5 69q-96 46 -143 46q-57 0 -114 -32.5t-164 -131.5v278q144 130 290 130q85 0 231 -71q118 -57 169 -57q98 0 271 162v-276zM1018 596l-14 -11q-147 -120 -264 -120q-53 0 -101.5 14t-160.5 68q-96 47 -143 47
q-48 0 -108.5 -29t-169.5 -135v278q144 129 290 129q85 0 231 -70q118 -57 169 -57q98 0 271 162v-276z" />
    <glyph glyph-name="increment" unicode="&#x2206;" horiz-adv-x="1259" 
d="M1229 0h-1200l628 1387zM993 82l-399 967l-440 -967h839z" />
    <glyph glyph-name="guillemotleft" unicode="&#xab;" horiz-adv-x="760" 
d="M120 1238h237l-84 -543l84 -571h-237l-84 571zM487 1238h237l-85 -543l85 -571h-237l-85 571z" />
    <glyph glyph-name="guillemotright" unicode="&#xbb;" horiz-adv-x="760" 
d="M639 1238l85 -543l-85 -571h-237l85 571l-85 543h237zM273 1238l84 -543l-84 -571h-237l84 571l-84 543h237z" />
    <glyph glyph-name="ellipsis" unicode="&#x2026;" horiz-adv-x="1133" 
d="M341 330v-330h-305v330h305zM1097 330v-330h-305v330h305zM719 330v-330h-305v330h305z" />
    <glyph glyph-name="nonbreakingspace" unicode="&#xa0;" horiz-adv-x="361" 
 />
    <glyph glyph-name="Agrave" unicode="&#xc0;" horiz-adv-x="1040" 
d="M811 1619l241 -1619h-431l-21 291h-151l-25 -291h-436l214 1619h609zM588 578q-32 275 -64 679q-64 -464 -80 -679h144zM152 1941h356l176 -271h-203z" />
    <glyph glyph-name="Atilde" unicode="&#xc3;" horiz-adv-x="1040" 
d="M811 1619l241 -1619h-431l-21 291h-151l-25 -291h-436l214 1619h609zM588 578q-32 275 -64 679q-64 -464 -80 -679h144zM929 1860q-46 -101 -113 -141t-118 -40q-71 0 -153 33l-74 29q-71 29 -106 29q-74 0 -122 -100l-158 105q110 194 248 194q72 0 157 -32l62 -23
q78 -29 106 -29q83 0 110 90z" />
    <glyph glyph-name="Otilde" unicode="&#xd5;" horiz-adv-x="1119" 
d="M1046 671q0 -244 -11.5 -345.5t-72 -185.5t-163.5 -129t-240 -45q-130 0 -233.5 42.5t-166.5 127.5t-75 185t-12 350v277q0 244 11.5 345.5t72 185.5t163.5 129t240 45q130 0 233.5 -42.5t166.5 -127.5t75 -185t12 -350v-277zM625 1203q0 113 -12.5 144.5t-51.5 31.5
q-33 0 -50.5 -25.5t-17.5 -150.5v-756q0 -141 11.5 -174t53.5 -33q43 0 55 38t12 181v744zM981 1860q-46 -101 -113 -141t-118 -40q-71 0 -153 33l-74 29q-71 29 -106 29q-74 0 -122 -100l-158 105q110 194 248 194q72 0 157 -32l62 -23q78 -29 106 -29q83 0 110 90z" />
    <glyph glyph-name="OE" unicode="&#x152;" horiz-adv-x="1410" 
d="M1339 1619v-324h-284v-307h271v-308h-271v-356h318v-324h-633q-137 -17 -189 -17q-128 0 -235 45.5t-159 114.5t-68.5 144.5t-16.5 240.5v529q0 180 14 264t72 156.5t157 115.5t243 43q83 0 185 -17h596zM634 1110q0 50 -1 74q-2 44 -2 61q0 117 -70 117q-41 0 -54 -26.5
t-13 -92.5l-1 -73v-649q0 -188 10.5 -226t56.5 -38t60 43t14 202v608z" />
    <glyph glyph-name="oe" unicode="&#x153;" horiz-adv-x="1567" 
d="M1506 640h-520v-297q0 -82 12.5 -107t48.5 -25q43 0 60 42t17 137v164h382v-131q0 -135 -42 -225t-151 -156t-258 -66q-79 0 -147 15.5t-126 46.5q-55 -31 -119 -46.5t-138 -15.5q-136 0 -234 43t-150.5 108.5t-66.5 134.5t-14 233v290q0 214 27.5 309.5t139 176
t282.5 80.5q76 0 144.5 -20t128.5 -60q52 40 117.5 60t143.5 20q141 0 264 -67.5t161 -175.5t38 -277v-191zM582 925q0 129 -11 160t-50 31q-34 0 -45.5 -29t-11.5 -122v-578q0 -125 9 -150.5t48 -25.5q37 0 49 28.5t12 133.5v552zM1102 855v142q0 85 -18.5 102t-40.5 17
q-33 0 -45 -22.5t-12 -96.5v-142h116z" />
    <glyph glyph-name="endash" unicode="&#x2013;" horiz-adv-x="1024" 
d="M-12 788h1048v-249h-1048v249z" />
    <glyph glyph-name="emdash" unicode="&#x2014;" horiz-adv-x="2048" 
d="M-12 788h2072v-249h-2072v249z" />
    <glyph glyph-name="quotedblleft" unicode="&#x201c;" horiz-adv-x="706" 
d="M398 1095v145q0 114 27.5 187t93.5 124t150 68v-116q-59 -34 -67 -91h67v-317h-271zM36 1095v145q0 114 27.5 187t94 124t149.5 68v-116q-59 -34 -67 -91h67v-317h-271z" />
    <glyph glyph-name="quotedblright" unicode="&#x201d;" horiz-adv-x="706" 
d="M669 1619v-145q0 -113 -27 -186.5t-93.5 -124t-150.5 -68.5v117q59 33 67 90h-67v317h271zM307 1619v-145q0 -113 -27 -186.5t-93.5 -124t-150.5 -68.5v117q60 33 68 90h-68v317h271z" />
    <glyph glyph-name="quoteleft" unicode="&#x2018;" horiz-adv-x="344" 
d="M36 1095v145q0 114 27.5 187t94 124t149.5 68v-116q-59 -34 -67 -91h67v-317h-271z" />
    <glyph glyph-name="quoteright" unicode="&#x2019;" horiz-adv-x="344" 
d="M307 1619v-145q0 -113 -27 -186.5t-93.5 -124t-150.5 -68.5v117q60 33 68 90h-68v317h271z" />
    <glyph glyph-name="divide" unicode="&#xf7;" horiz-adv-x="1092" 
d="M404 1144q0 59 41.5 99t97.5 40q57 0 98 -41t41 -97q0 -57 -41 -98t-98 -41q-59 0 -99 42t-40 96zM64 927h964v-236h-964v236zM404 476q0 63 42 103t98 40q57 0 98.5 -40.5t41.5 -99.5q0 -57 -41 -98t-99 -41q-59 0 -99.5 42t-40.5 94z" />
    <glyph glyph-name="lozenge" unicode="&#x25ca;" horiz-adv-x="1012" 
d="M548 1422l418 -713l-418 -709h-111l-391 709l391 713h111zM494 1325l-340 -616l340 -615l359 615z" />
    <glyph glyph-name="ydieresis" unicode="&#xff;" horiz-adv-x="918" 
d="M918 1327l-116 -960q-27 -228 -45.5 -311t-61.5 -137t-119.5 -79.5t-244.5 -25.5h-245v212q94 0 121 9.5t27 42.5q0 16 -25 139l-221 1110h367l132 -895l64 895h367zM385 1676v-260h-261v260h261zM822 1676v-260h-261v260h261z" />
    <glyph glyph-name="Ydieresis" unicode="&#x178;" horiz-adv-x="969" 
d="M981 1619l-307 -1033v-586h-390v586l-296 1033h387q91 -473 102 -637q35 259 117 637h387zM397 1930v-260h-261v260h261zM834 1930v-260h-261v260h261z" />
    <glyph glyph-name="fraction" unicode="&#x2215;" horiz-adv-x="256" 
d="M521 1650l-632 -1681h-154l635 1681h151z" />
    <glyph glyph-name="Euro" unicode="&#x20ac;" horiz-adv-x="1087" 
d="M457 1036h114v-172h-114v-80h114v-172h-114v-182q0 -85 6 -116t30 -52.5t60 -21.5q30 0 55.5 17.5t32 51t6.5 135.5v154h373v-63q0 -225 -42 -332.5t-155 -172.5t-274 -65q-129 0 -232 45.5t-158 121.5t-71 166t-16 271v43h-97v172h97v80h-97v172h97v29q0 156 13.5 248
t74.5 171t165.5 124t235.5 45q130 0 235.5 -47t164.5 -151.5t59 -338.5v-53h-373v131q-3 103 -7 129.5t-21.5 40.5t-55.5 14q-44 0 -70 -20.5t-31 -54t-5 -121.5v-146z" />
    <glyph glyph-name="guilsinglleft" unicode="&#x2039;" horiz-adv-x="405" 
d="M123 1257h245l-87 -561l87 -592h-245l-87 592z" />
    <glyph glyph-name="guilsinglright" unicode="&#x203a;" horiz-adv-x="405" 
d="M281 1257l87 -561l-87 -592h-245l87 592l-87 561h245z" />
    <glyph glyph-name="fi" unicode="&#xfb01;" horiz-adv-x="1148" 
d="M1075 1619v-211h-416v211h416zM587 1619v-205q-125 0 -147.5 -11.5t-22.5 -65.5v-42h170v-210h-96v-1085h-404v1085h-83v210h83q0 131 9 175t44.5 78.5t99.5 52.5t199 18h148zM1075 1327v-1327h-416v1327h416z" />
    <glyph glyph-name="fl" unicode="&#xfb02;" horiz-adv-x="1145" 
d="M587 1619v-205q-125 0 -147.5 -11.5t-22.5 -65.5v-42h170v-210h-96v-1085h-404v1085h-83v210h83q0 131 9 175t44.5 78.5t99.5 52.5t199 18h148zM1072 1619v-1619h-416v1619h416z" />
    <glyph glyph-name="daggerdbl" unicode="&#x2021;" horiz-adv-x="1113" 
d="M334 1619h444v-375h298v-380h-298v-298h298v-381h-298v-374h-444v374h-298v381h298v298h-298v380h298v375z" />
    <glyph glyph-name="periodcentered" unicode="&#x2219;" horiz-adv-x="450" 
d="M377 972v-330h-305v330h305z" />
    <glyph glyph-name="quotesinglbase" unicode="&#x201a;" horiz-adv-x="344" 
d="M307 317v-145q0 -114 -27 -187t-93.5 -124t-150.5 -68v116q60 34 68 91h-68v317h271z" />
    <glyph glyph-name="quotedblbase" unicode="&#x201e;" horiz-adv-x="706" 
d="M669 317v-145q0 -114 -27 -187t-93.5 -124t-150.5 -68v116q59 34 67 91h-67v317h271zM307 317v-145q0 -114 -27 -187t-93.5 -124t-150.5 -68v116q60 34 68 91h-68v317h271z" />
    <glyph glyph-name="perthousand" unicode="&#x2030;" horiz-adv-x="2099" 
d="M1103 1650l-633 -1681h-154l635 1681h152zM632 1343v-278q0 -109 -20.5 -163.5t-88 -95t-178.5 -40.5q-128 0 -195 38.5t-90.5 92.5t-23.5 155v291q0 120 24.5 177.5t94.5 93.5t173 36q114 0 185 -39.5t95 -95.5t24 -172zM376 1414q0 64 -6.5 79t-35.5 15q-27 0 -35 -16
t-8 -78v-408q0 -70 7 -84t37 -14q26 0 33.5 16t7.5 75v415zM1383 561v-279q0 -108 -20.5 -163t-88 -95.5t-178.5 -40.5q-127 0 -194.5 39t-91 93t-23.5 154v292q0 119 24.5 176.5t94.5 94t173 36.5q115 0 186 -40t94.5 -96t23.5 -171zM1127 631q0 64 -6.5 79.5t-35.5 15.5
q-27 0 -34.5 -16t-7.5 -79v-408q0 -69 7 -83t36 -14q27 0 34 15.5t7 75.5v414zM2063 561v-279q0 -108 -20.5 -163t-88 -95.5t-178.5 -40.5q-127 0 -194.5 39t-91 93t-23.5 154v292q0 119 24.5 176.5t94.5 94t173 36.5q115 0 185.5 -40t94.5 -96t24 -171zM1807 631
q0 64 -6.5 79.5t-35.5 15.5q-27 0 -34.5 -16t-7.5 -79v-408q0 -69 7 -83t36 -14q26 0 33.5 15.5t7.5 75.5v414z" />
    <glyph glyph-name="Acircumflex" unicode="&#xc2;" horiz-adv-x="1040" 
d="M811 1619l241 -1619h-431l-21 291h-151l-25 -291h-436l214 1619h609zM588 578q-32 275 -64 679q-64 -464 -80 -679h144zM510 1801l-118 -131h-280l257 282h282l241 -282h-271z" />
    <glyph glyph-name="Ecircumflex" unicode="&#xca;" horiz-adv-x="851" 
d="M84 1619h702v-324h-281v-307h263v-308h-263v-356h309v-324h-730v1619zM433 1801l-118 -131h-280l257 282h282l241 -282h-271z" />
    <glyph glyph-name="Aacute" unicode="&#xc1;" horiz-adv-x="1040" 
d="M811 1619l241 -1619h-431l-21 291h-151l-25 -291h-436l214 1619h609zM588 578q-32 275 -64 679q-64 -464 -80 -679h144zM862 1941l-329 -271h-203l176 271h356z" />
    <glyph glyph-name="Edieresis" unicode="&#xcb;" horiz-adv-x="851" 
d="M84 1619h702v-324h-281v-307h263v-308h-263v-356h309v-324h-730v1619zM337 1930v-260h-261v260h261zM774 1930v-260h-261v260h261z" />
    <glyph glyph-name="Egrave" unicode="&#xc8;" horiz-adv-x="851" 
d="M84 1619h702v-324h-281v-307h263v-308h-263v-356h309v-324h-730v1619zM84 1941h356l176 -271h-203z" />
    <glyph glyph-name="Iacute" unicode="&#xcd;" horiz-adv-x="590" 
d="M505 1619v-1619h-421v1619h421zM636 1941l-329 -271h-203l176 271h356z" />
    <glyph glyph-name="Icircumflex" unicode="&#xce;" horiz-adv-x="590" 
d="M505 1619v-1619h-421v1619h421zM303 1801l-118 -131h-280l257 282h282l241 -282h-271z" />
    <glyph glyph-name="Idieresis" unicode="&#xcf;" horiz-adv-x="590" 
d="M505 1619v-1619h-421v1619h421zM207 1930v-260h-261v260h261zM644 1930v-260h-261v260h261z" />
    <glyph glyph-name="Igrave" unicode="&#xcc;" horiz-adv-x="590" 
d="M505 1619v-1619h-421v1619h421zM-47 1941h356l176 -271h-203z" />
    <glyph glyph-name="Oacute" unicode="&#xd3;" horiz-adv-x="1119" 
d="M1046 671q0 -244 -11.5 -345.5t-72 -185.5t-163.5 -129t-240 -45q-130 0 -233.5 42.5t-166.5 127.5t-75 185t-12 350v277q0 244 11.5 345.5t72 185.5t163.5 129t240 45q130 0 233.5 -42.5t166.5 -127.5t75 -185t12 -350v-277zM625 1203q0 113 -12.5 144.5t-51.5 31.5
q-33 0 -50.5 -25.5t-17.5 -150.5v-756q0 -141 11.5 -174t53.5 -33q43 0 55 38t12 181v744zM900 1941l-329 -271h-203l176 271h356z" />
    <glyph glyph-name="Ocircumflex" unicode="&#xd4;" horiz-adv-x="1119" 
d="M1046 671q0 -244 -11.5 -345.5t-72 -185.5t-163.5 -129t-240 -45q-130 0 -233.5 42.5t-166.5 127.5t-75 185t-12 350v277q0 244 11.5 345.5t72 185.5t163.5 129t240 45q130 0 233.5 -42.5t166.5 -127.5t75 -185t12 -350v-277zM625 1203q0 113 -12.5 144.5t-51.5 31.5
q-33 0 -50.5 -25.5t-17.5 -150.5v-756q0 -141 11.5 -174t53.5 -33q43 0 55 38t12 181v744zM567 1801l-118 -131h-280l257 282h282l241 -282h-271z" />
    <glyph glyph-name="apple" unicode="&#xf000;" horiz-adv-x="1618" 
 />
    <glyph glyph-name="Ograve" unicode="&#xd2;" horiz-adv-x="1119" 
d="M1046 671q0 -244 -11.5 -345.5t-72 -185.5t-163.5 -129t-240 -45q-130 0 -233.5 42.5t-166.5 127.5t-75 185t-12 350v277q0 244 11.5 345.5t72 185.5t163.5 129t240 45q130 0 233.5 -42.5t166.5 -127.5t75 -185t12 -350v-277zM625 1203q0 113 -12.5 144.5t-51.5 31.5
q-33 0 -50.5 -25.5t-17.5 -150.5v-756q0 -141 11.5 -174t53.5 -33q43 0 55 38t12 181v744zM218 1941h356l176 -271h-203z" />
    <glyph glyph-name="Uacute" unicode="&#xda;" horiz-adv-x="1120" 
d="M1041 1619v-1082q0 -184 -12 -258.5t-71 -153t-155.5 -119t-227.5 -40.5q-145 0 -256 48t-166 125t-65 162.5t-10 359.5v958h421v-1214q0 -106 11.5 -135.5t46.5 -29.5q40 0 51.5 32.5t11.5 153.5v1193h421zM901 1941l-329 -271h-203l176 271h356z" />
    <glyph glyph-name="Ucircumflex" unicode="&#xdb;" horiz-adv-x="1120" 
d="M1041 1619v-1082q0 -184 -12 -258.5t-71 -153t-155.5 -119t-227.5 -40.5q-145 0 -256 48t-166 125t-65 162.5t-10 359.5v958h421v-1214q0 -106 11.5 -135.5t46.5 -29.5q40 0 51.5 32.5t11.5 153.5v1193h421zM568 1801l-118 -131h-280l257 282h282l241 -282h-271z" />
    <glyph glyph-name="Ugrave" unicode="&#xd9;" horiz-adv-x="1120" 
d="M1041 1619v-1082q0 -184 -12 -258.5t-71 -153t-155.5 -119t-227.5 -40.5q-145 0 -256 48t-166 125t-65 162.5t-10 359.5v958h421v-1214q0 -106 11.5 -135.5t46.5 -29.5q40 0 51.5 32.5t11.5 153.5v1193h421zM218 1941h356l176 -271h-203z" />
    <glyph glyph-name="dotlessi" unicode="&#x131;" horiz-adv-x="561" 
d="M488 1327v-1327h-416v1327h416z" />
    <glyph glyph-name="circumflex" unicode="&#x2c6;" horiz-adv-x="683" 
d="M350 1632l-118 -131h-280l257 282h282l241 -282h-271z" />
    <glyph glyph-name="tilde" unicode="&#x2dc;" horiz-adv-x="683" 
d="M763 1691q-46 -101 -113 -141t-118 -40q-71 0 -153 33l-74 29q-71 29 -106 29q-74 0 -122 -100l-158 105q110 194 248 194q72 0 157 -32l62 -23q78 -29 106 -29q83 0 110 90z" />
    <glyph glyph-name="macron" unicode="&#x2c9;" horiz-adv-x="683" 
d="M739 1674v-173h-796v173h796z" />
    <glyph glyph-name="breve" unicode="&#x2d8;" horiz-adv-x="683" 
d="M455 1803h170q-6 -136 -79.5 -219t-204.5 -83q-132 0 -204.5 83.5t-78.5 218.5h170q12 -137 113 -137q102 0 114 137z" />
    <glyph glyph-name="dotaccent" unicode="&#x2d9;" horiz-adv-x="683" 
d="M472 1761v-260h-261v260h261z" />
    <glyph glyph-name="ring" unicode="&#x2da;" horiz-adv-x="683" 
d="M342 1922q84 0 147 -60.5t63 -150.5q0 -87 -62 -148.5t-148 -61.5q-88 0 -149.5 61.5t-61.5 148.5t62 149t149 62zM340 1790q-33 0 -57.5 -24t-24.5 -59q0 -34 24.5 -58t57.5 -24q34 0 58.5 24t24.5 58q0 35 -24.5 59t-58.5 24z" />
    <glyph glyph-name="cedilla" unicode="&#xb8;" horiz-adv-x="683" 
d="M378 12v-124q52 0 98 -35t46 -97q0 -76 -62 -132t-148 -56q-156 0 -199 158h148q14 -41 50 -41q30 0 44.5 15t14.5 45q0 33 -20.5 49.5t-62.5 16.5q-9 0 -26 -1v202h117z" />
    <glyph glyph-name="hungarumlaut" unicode="&#x2dd;" horiz-adv-x="683" 
d="M414 1811l-241 -310h-149l118 310h272zM803 1811l-240 -310h-149l118 310h271z" />
    <glyph glyph-name="ogonek" unicode="&#x2db;" horiz-adv-x="683" 
d="M262 21h146q-106 -102 -106 -155q0 -32 18 -48.5t54 -16.5q50 0 114 26l41 -100q-84 -43 -174 -43q-86 0 -142.5 41t-56.5 114q0 89 106 182z" />
    <glyph glyph-name="caron" unicode="&#x2c7;" horiz-adv-x="683" 
d="M350 1652l111 131h271l-241 -282h-282l-257 282h280z" />
    <glyph glyph-name="Lslash" unicode="&#x141;" horiz-adv-x="785" 
d="M517 1011l244 55v-172l-244 -55v-515h256v-324h-677v744l-82 -19v172l82 19v703h421v-608z" />
    <glyph glyph-name="lslash" unicode="&#x142;" horiz-adv-x="585" 
d="M500 1045l70 21v-172l-70 -21v-873h-416v747l-70 -22v172l70 21v701h416v-574z" />
    <glyph glyph-name="Scaron" unicode="&#x160;" horiz-adv-x="1059" 
d="M976 1129h-391v120q0 84 -15 107t-50 23q-38 0 -57.5 -31t-19.5 -94q0 -81 22 -122q21 -41 119 -99q281 -167 354 -274t73 -345q0 -173 -40.5 -255t-156.5 -137.5t-270 -55.5q-169 0 -288.5 64t-156.5 163t-37 281v106h391v-197q0 -91 16.5 -117t58.5 -26t62.5 33
t20.5 98q0 143 -39 187q-40 44 -197 147q-157 104 -208 151t-84.5 130t-33.5 212q0 186 47.5 272t153.5 134.5t256 48.5q164 0 279.5 -53t153 -133.5t37.5 -273.5v-64zM537 1821l111 131h271l-241 -282h-282l-257 282h280z" />
    <glyph glyph-name="scaron" unicode="&#x161;" horiz-adv-x="964" 
d="M897 903h-358v72q0 92 -10.5 116.5t-52.5 24.5q-34 0 -51 -22.5t-17 -67.5q0 -61 8.5 -89.5t51 -62.5t174.5 -99q176 -86 231 -162t55 -221q0 -162 -42 -244.5t-140.5 -127t-237.5 -44.5q-154 0 -263.5 48t-150.5 130t-41 248v64h358v-84q0 -107 13.5 -139t53.5 -32
q43 0 60 21.5t17 90.5q0 95 -22 119q-23 24 -235 142q-178 100 -217 181.5t-39 193.5q0 159 42 234.5t142.5 116.5t233.5 41q132 0 224.5 -33.5t142 -88.5t60 -102t10.5 -147v-77zM490 1567l111 131h271l-241 -282h-282l-257 282h280z" />
    <glyph glyph-name="Zcaron" unicode="&#x17d;" horiz-adv-x="813" 
d="M788 1619v-324l-314 -971h314v-324h-776v235l324 1060h-286v324h738zM414 1821l111 131h271l-241 -282h-282l-257 282h280z" />
    <glyph glyph-name="zcaron" unicode="&#x17e;" horiz-adv-x="719" 
d="M701 1327v-294l-298 -767h298v-266h-689v278l305 783h-274v266h658zM349 1567l111 131h271l-241 -282h-282l-257 282h280z" />
    <glyph glyph-name="brokenbar" unicode="&#xa6;" horiz-adv-x="555" 
d="M169 1619h217v-815h-217v815zM169 550h217v-815h-217v815z" />
    <glyph glyph-name="Eth" unicode="&#xd0;" horiz-adv-x="1144" 
d="M96 810h-82v172h82v637h315q305 0 412.5 -28t163.5 -92t70 -142.5t14 -308.5v-567q0 -218 -20.5 -291.5t-71.5 -115t-126 -58t-226 -16.5h-531v810zM517 810v-533q91 0 112 36.5t21 198.5v629q0 110 -7 141t-31.5 45.5t-94.5 14.5v-360h66v-172h-66z" />
    <glyph glyph-name="Eth" unicode="&#x110;" horiz-adv-x="1144" 
d="M96 810h-82v172h82v637h315q305 0 412.5 -28t163.5 -92t70 -142.5t14 -308.5v-567q0 -218 -20.5 -291.5t-71.5 -115t-126 -58t-226 -16.5h-531v810zM517 810v-533q91 0 112 36.5t21 198.5v629q0 110 -7 141t-31.5 45.5t-94.5 14.5v-360h66v-172h-66z" />
    <glyph glyph-name="eth" unicode="&#xf0;" horiz-adv-x="1047" 
d="M370 1619h245q27 -19 51 -40l161 40l30 -89l-114 -32q68 -79 129 -190t88 -224.5t27 -308.5v-302q0 -167 -43.5 -272t-152.5 -165t-275 -60q-167 0 -273.5 56.5t-144.5 153t-38 308.5v292q0 175 34.5 270t122 165t198.5 70q98 0 168 -56q-19 107 -74 202l-192 -52l-30 91
l167 46q-50 67 -84 97zM583 907q0 99 -11.5 124t-47.5 25q-34 0 -47 -30t-13 -106v-569q0 -83 14.5 -111.5t46.5 -28.5q31 0 44.5 27.5t13.5 123.5v545z" />
    <glyph glyph-name="Yacute" unicode="&#xdd;" horiz-adv-x="969" 
d="M981 1619l-307 -1033v-586h-390v586l-296 1033h387q91 -473 102 -637q35 259 117 637h387zM826 1941l-329 -271h-203l176 271h356z" />
    <glyph glyph-name="yacute" unicode="&#xfd;" horiz-adv-x="918" 
d="M918 1327l-116 -960q-27 -228 -45.5 -311t-61.5 -137t-119.5 -79.5t-244.5 -25.5h-245v212q94 0 121 9.5t27 42.5q0 16 -25 139l-221 1110h367l132 -895l64 895h367zM814 1687l-329 -271h-203l176 271h356z" />
    <glyph glyph-name="Thorn" unicode="&#xde;" horiz-adv-x="1028" 
d="M505 1317q176 0 263.5 -25t140 -79.5t67.5 -123t15 -225.5v-140q0 -144 -28 -217t-111.5 -115t-233.5 -42h-113v-350h-421v1619h421v-302zM505 1040v-412h31q58 0 80.5 28.5t22.5 118.5v132q0 81 -26 107t-108 26z" />
    <glyph glyph-name="thorn" unicode="&#xfe;" horiz-adv-x="1063" 
d="M476 1619v-409q107 141 261 141q94 0 162.5 -50.5t85.5 -116.5t17 -224v-559q0 -181 -21.5 -257.5t-88 -122t-160.5 -45.5q-150 0 -256 139v-304h-404v1808h404zM598 941q0 123 -9 149t-50 26q-40 0 -51.5 -30t-11.5 -145v-550q0 -120 12 -150t52 -30q39 0 48.5 27.5
t9.5 133.5v569z" />
    <glyph glyph-name="minus" unicode="&#x2212;" horiz-adv-x="1092" 
d="M64 931h964v-244h-964v244z" />
    <glyph glyph-name="multiply" unicode="&#xd7;" horiz-adv-x="1092" 
d="M74 1122l172 172l300 -299l299 299l173 -172l-299 -300l297 -296l-172 -173l-297 297l-298 -296l-172 172l297 296z" />
    <glyph glyph-name="onesuperior" unicode="&#xb9;" horiz-adv-x="501" 
d="M440 1636v-853h-255v457q0 98 -5 115t-30 26.5t-110 9.5h-28v110q183 33 278 135h150z" />
    <glyph glyph-name="twosuperior" unicode="&#xb2;" horiz-adv-x="651" 
d="M592 938v-155h-556v128q250 344 293.5 419t43.5 118q0 60 -53 60q-29 0 -42 -16.5t-13 -69.5v-86h-229v37q0 88 19 142.5t83 94.5t171 40q150 0 227.5 -63t77.5 -162q0 -75 -42.5 -153.5t-177.5 -245.5l-69 -88h267z" />
    <glyph glyph-name="threesuperior" unicode="&#xb3;" horiz-adv-x="668" 
d="M532 1263q45 -14 72.5 -53t27.5 -169q0 -170 -82.5 -222.5t-213.5 -52.5q-121 0 -189.5 35t-89.5 86t-21 170v56h255v-127q0 -53 7 -65.5t33 -12.5q29 0 37.5 17t8.5 94v54q0 67 -27 84t-124 18v134q108 0 129.5 13t21.5 72v48q0 44 -11 55t-32 11q-25 0 -34 -12t-9 -60
v-59h-255v62q0 125 65.5 168t211.5 43q177 0 243 -59t66 -170q0 -47 -16 -89.5t-74 -68.5z" />
    <glyph glyph-name="onehalf" unicode="&#xbd;" horiz-adv-x="1321" 
d="M1001 1650l-633 -1681h-154l635 1681h152zM440 1636v-853h-255v457q0 98 -5 115t-30 26.5t-110 9.5h-28v110q183 33 278 135h150zM1262 155v-155h-556v128q250 344 293.5 419t43.5 119q0 60 -54 60q-28 0 -41 -16.5t-13 -70.5v-85h-229v36q0 88 19 143t83 95t171 40
q150 0 227.5 -63.5t77.5 -162.5q0 -73 -43.5 -153.5t-176.5 -245.5l-69 -88h267z" />
    <glyph glyph-name="onequarter" unicode="&#xbc;" horiz-adv-x="1277" 
d="M1001 1650l-633 -1681h-154l635 1681h152zM440 1636v-853h-255v457q0 98 -5 115t-30 26.5t-110 9.5h-28v110q183 33 278 135h150zM1182 854v-550h71v-156h-71v-148h-256v148h-297v151l218 555h335zM926 304v335l-126 -335h126z" />
    <glyph glyph-name="threequarters" unicode="&#xbe;" horiz-adv-x="1416" 
d="M532 1263q45 -14 72.5 -53t27.5 -169q0 -170 -82.5 -222.5t-213.5 -52.5q-121 0 -189.5 35t-89.5 86t-21 170v56h255v-127q0 -53 7 -65.5t33 -12.5q29 0 37.5 17t8.5 94v54q0 67 -27 84t-124 18v134q108 0 129.5 13t21.5 72v48q0 44 -11 55t-32 11q-25 0 -34 -12t-9 -60
v-59h-255v62q0 125 65.5 168t211.5 43q177 0 243 -59t66 -170q0 -47 -16 -89.5t-74 -68.5zM1139 1650l-632 -1681h-154l634 1681h152zM1320 854v-550h71v-156h-71v-148h-255v148h-298v151l218 555h335zM1065 304v335l-127 -335h127z" />
    <glyph glyph-name="francXXX" horiz-adv-x="1493" 
d="M832 988v339h404l-16 -174q88 187 255 198v-467q-110 0 -162.5 -30t-64.5 -83.5t-12 -246.5v-524h-404v680h-327v-680h-421v1619h713v-324h-292v-307h327z" />
    <glyph glyph-name="Gbreve" unicode="&#x11e;" horiz-adv-x="1129" 
d="M1050 1023h-421v147q0 139 -12 174t-57 35q-39 0 -53 -30t-14 -154v-777q0 -109 14 -143.5t56 -34.5q46 0 62.5 39t16.5 152v192h-85v246h493v-869h-265l-39 116q-43 -75 -108.5 -112.5t-154.5 -37.5q-106 0 -198.5 51.5t-140.5 127.5t-60 159.5t-12 250.5v481
q0 232 25 337t143.5 192.5t306.5 87.5q185 0 307 -76t159 -180.5t37 -303.5v-70zM678 1972h170q-6 -136 -79.5 -219t-204.5 -83q-132 0 -204.5 83.5t-78.5 218.5h170q12 -137 113 -137q102 0 114 137z" />
    <glyph glyph-name="gbreve" unicode="&#x11f;" horiz-adv-x="1062" 
d="M990 1327v-1022q0 -207 -9.5 -267.5t-67.5 -128t-161.5 -103t-260.5 -35.5q-193 0 -310 65.5t-121 257.5h392q0 -88 64 -88q46 0 61 27t15 113v100q-52 -47 -109.5 -71t-120.5 -24q-109 0 -179.5 44t-96.5 115.5t-26 203.5v482q0 189 68 272t207 83q76 0 138.5 -31
t111.5 -93l29 100h376zM585 975q0 91 -10.5 116t-46.5 25q-35 0 -49.5 -28.5t-14.5 -112.5v-446q0 -89 11 -115.5t46 -26.5q40 0 52 32t12 145v411zM644 1718h170q-6 -136 -79.5 -219t-204.5 -83q-132 0 -204.5 83.5t-78.5 218.5h170q12 -137 113 -137q102 0 114 137z" />
    <glyph glyph-name="Idotaccent" unicode="&#x130;" horiz-adv-x="590" 
d="M505 1619v-1619h-421v1619h421zM425 1930v-260h-261v260h261z" />
    <glyph glyph-name="Scedilla" unicode="&#x15e;" horiz-adv-x="1059" 
d="M565 -33v-19q53 0 98.5 -35t45.5 -97q0 -76 -61.5 -131.5t-147.5 -55.5q-157 0 -199 158h147q14 -42 51 -42q59 0 59 60q0 66 -83 66h-27v102q-161 22 -250.5 94t-112.5 167t-23 240v106h391v-197q0 -91 16.5 -117t58.5 -26q83 0 83 131q0 143 -39.5 187t-196.5 147
q-157 104 -208 151t-84.5 130t-33.5 212q0 186 47.5 272t153.5 134.5t256 48.5q164 0 279.5 -53t153 -133.5t37.5 -273.5v-64h-391v120q0 84 -15 107t-50 23q-77 0 -77 -125q0 -81 21.5 -122t119.5 -99q281 -167 354 -274t73 -345q0 -163 -34 -242.5t-146.5 -141
t-265.5 -63.5z" />
    <glyph glyph-name="scedilla" unicode="&#x15f;" horiz-adv-x="964" 
d="M518 -24v-28q52 0 98 -35t46 -97q0 -76 -61.5 -131.5t-147.5 -55.5q-157 0 -200 158h148q14 -42 51 -42q59 0 59 60q0 66 -83 66h-27v112q-115 15 -193.5 59.5t-116.5 117.5t-38 242v64h358v-84q0 -107 13.5 -139t53.5 -32q43 0 60 21.5t17 90.5q0 95 -22.5 119
t-234.5 142q-178 100 -217 181.5t-39 193.5q0 159 42 234.5t142.5 116.5t233.5 41q132 0 224.5 -33.5t142 -88.5t60 -102t10.5 -147v-77h-358v72q0 92 -10.5 116.5t-52.5 24.5q-68 0 -68 -90q0 -61 8.5 -89.5t51 -62.5t174.5 -99q176 -86 231 -162t55 -221
q0 -154 -37 -234.5t-129.5 -129.5t-243.5 -52z" />
    <glyph glyph-name="Cacute" unicode="&#x106;" horiz-adv-x="1134" 
d="M1067 913h-421v282q0 123 -13.5 153.5t-59.5 30.5q-52 0 -66 -37t-14 -160v-752q0 -118 14 -154t63 -36q47 0 61.5 36t14.5 169v203h421v-63q0 -251 -35.5 -356t-157 -184t-299.5 -79q-185 0 -305 67t-159 185.5t-39 356.5v473q0 175 12 262.5t71.5 168.5t165 127.5
t242.5 46.5q186 0 307 -72t159 -179.5t38 -334.5v-154zM911 1941l-329 -271h-203l176 271h356z" />
    <glyph glyph-name="cacute" unicode="&#x107;" horiz-adv-x="1013" 
d="M965 826h-381v153q0 80 -13 108.5t-48 28.5t-47 -25t-12 -112v-626q0 -71 18 -106.5t53 -35.5q41 0 55.5 37t14.5 140v158h360q-1 -159 -11.5 -238.5t-67 -163t-147.5 -126t-225 -42.5q-171 0 -271 58.5t-141.5 164t-41.5 299.5v377q0 169 34 255t145 153.5t270 67.5
q158 0 270 -67t149 -169t37 -289zM851 1687l-329 -271h-203l176 271h356z" />
    <glyph glyph-name="Ccaron" unicode="&#x10c;" horiz-adv-x="1134" 
d="M1067 913h-421v282q0 123 -13.5 153.5t-59.5 30.5q-52 0 -66 -37t-14 -160v-752q0 -118 14 -154t63 -36q47 0 61.5 36t14.5 169v203h421v-63q0 -251 -35.5 -356t-157 -184t-299.5 -79q-185 0 -305 67t-159 185.5t-39 356.5v473q0 175 12 262.5t71.5 168.5t165 127.5
t242.5 46.5q186 0 307 -72t159 -179.5t38 -334.5v-154zM578 1821l111 131h271l-241 -282h-282l-257 282h280z" />
    <glyph glyph-name="ccaron" unicode="&#x10d;" horiz-adv-x="1013" 
d="M965 826h-381v153q0 80 -13 108.5t-48 28.5t-47 -25t-12 -112v-626q0 -71 18 -106.5t53 -35.5q41 0 55.5 37t14.5 140v158h360q-1 -159 -11.5 -238.5t-67 -163t-147.5 -126t-225 -42.5q-171 0 -271 58.5t-141.5 164t-41.5 299.5v377q0 169 34 255t145 153.5t270 67.5
q158 0 270 -67t149 -169t37 -289zM518 1567l111 131h271l-241 -282h-282l-257 282h280z" />
    <glyph glyph-name="dmacron" unicode="&#x111;" horiz-adv-x="1064" 
d="M991 1571h70v-172h-70v-1399h-404v96q-117 -120 -256 -120q-94 0 -163 49.5t-88.5 114.5t-19.5 212v621q0 153 19.5 217t89.5 112.5t167 48.5q149 0 251 -108v156h-251v172h251v48h404v-48zM587 993q0 73 -12.5 98t-49.5 25q-36 0 -48.5 -22.5t-12.5 -100.5v-650
q0 -81 12 -106.5t46 -25.5q39 0 52 28.5t13 139.5v614z" />
    <glyph glyph-name="overscore" unicode="&#xaf;" horiz-adv-x="1131" 
d="M-12 1792h1155v-102h-1155v102z" />
    <glyph glyph-name="middot" unicode="&#xb7;" horiz-adv-x="683" 
d="M341 844q59 0 103 -42t44 -104q0 -61 -43 -104t-104 -43q-60 0 -103 43t-43 104t43 103.5t103 42.5z" />
    <glyph glyph-name="foursuperior" unicode="&#x2074;" horiz-adv-x="660" 
d="M565 1636v-550h71v-155h-71v-148h-255v148h-298v151l218 554h335zM310 1086v336l-127 -336h127z" />
    <glyph glyph-name="foursuperior" unicode="&#xf005;" horiz-adv-x="660" 
d="M565 1636v-550h71v-155h-71v-148h-255v148h-298v151l218 554h335zM310 1086v336l-127 -336h127z" />
    <glyph glyph-name="commaaccent1" horiz-adv-x="683" 
d="M346 -533h-78q47 130 55 222q-82 32 -82 108q0 47 29 76.5t71 29.5q49 0 77 -37.5t28 -93.5q0 -112 -100 -305z" />
    <glyph glyph-name="Amacron" unicode="&#x100;" horiz-adv-x="1040" 
d="M811 1619l241 -1619h-431l-21 291h-151l-25 -291h-436l214 1619h609zM588 578q-32 275 -64 679q-64 -464 -80 -679h144zM905 1843v-173h-796v173h796z" />
    <glyph glyph-name="amacron" unicode="&#x101;" horiz-adv-x="1032" 
d="M433 813h-379v89q0 154 35.5 237.5t142.5 147.5t278 64q205 0 309 -72.5t125 -178t21 -434.5v-666h-393v118q-37 -71 -95.5 -106.5t-139.5 -35.5q-106 0 -194.5 59.5t-88.5 260.5v109q0 149 47 203t233 126q199 78 213 105t14 110q0 104 -15.5 135.5t-51.5 31.5
q-41 0 -51 -26.5t-10 -137.5v-139zM561 631q-97 -71 -112.5 -119t-15.5 -138q0 -103 13.5 -133t53.5 -30q38 0 49.5 23.5t11.5 123.5v273zM927 1589v-173h-796v173h796z" />
    <glyph glyph-name="Abreve" unicode="&#x102;" horiz-adv-x="1040" 
d="M811 1619l241 -1619h-431l-21 291h-151l-25 -291h-436l214 1619h609zM588 578q-32 275 -64 679q-64 -464 -80 -679h144zM620 1972h170q-6 -136 -79.5 -219t-204.5 -83q-132 0 -204.5 83.5t-78.5 218.5h170q12 -137 113 -137q102 0 114 137z" />
    <glyph glyph-name="abreve" unicode="&#x103;" horiz-adv-x="1032" 
d="M433 813h-379v89q0 154 35.5 237.5t142.5 147.5t278 64q205 0 309 -72.5t125 -178t21 -434.5v-666h-393v118q-37 -71 -95.5 -106.5t-139.5 -35.5q-106 0 -194.5 59.5t-88.5 260.5v109q0 149 47 203t233 126q199 78 213 105t14 110q0 104 -15.5 135.5t-51.5 31.5
q-41 0 -51 -26.5t-10 -137.5v-139zM561 631q-97 -71 -112.5 -119t-15.5 -138q0 -103 13.5 -133t53.5 -30q38 0 49.5 23.5t11.5 123.5v273zM618 1718h170q-6 -136 -79.5 -219t-204.5 -83q-132 0 -204.5 83.5t-78.5 218.5h170q12 -137 113 -137q102 0 114 137z" />
    <glyph glyph-name="Aogonek" unicode="&#x104;" horiz-adv-x="1040" 
d="M879 0q-86 -85 -86 -135q0 -64 71 -64q50 0 115 27l41 -100q-96 -45 -174 -45q-91 0 -145 43t-54 112q0 83 84 162h-110l-21 291h-151l-25 -291h-436l215 1620h608l242 -1620h-174zM444 580h144q-41 362 -64 677q-53 -391 -80 -677z" />
    <glyph glyph-name="aogonek" unicode="&#x105;" horiz-adv-x="1032" 
d="M838 0q-86 -85 -86 -135q0 -64 71 -64q50 0 115 27l41 -100q-96 -45 -174 -45q-91 0 -145 43t-54 112q0 83 84 162h-117v119q-35 -65 -86.5 -93t-148.5 -28q-150 0 -216.5 62.5t-66.5 236.5v109q0 143 40 196t186 111q193 76 237.5 101t44.5 134q0 87 -13.5 127.5
t-49.5 40.5q-32 0 -49 -17.5t-17 -86.5v-199h-379v88q0 128 22.5 204.5t89.5 132.5t134.5 67.5t210.5 11.5q129 0 215 -16.5t136 -58t73 -117.5t27 -162t4 -297v-666h-129zM563 293v338q-83 -63 -106 -106t-23 -175q0 -88 17.5 -113.5t50.5 -25.5q61 0 61 82z" />
    <glyph glyph-name="Ccircumflex" unicode="&#x108;" horiz-adv-x="1134" 
d="M1067 913h-421v282q0 123 -13.5 153.5t-59.5 30.5q-52 0 -66 -37t-14 -160v-752q0 -118 14 -154t63 -36q47 0 61.5 36t14.5 169v203h421v-63q0 -251 -35.5 -356t-157 -184t-299.5 -79q-185 0 -305 67t-159 185.5t-39 356.5v473q0 175 12 262.5t71.5 168.5t165 127.5
t242.5 46.5q186 0 307 -72t159 -179.5t38 -334.5v-154zM564 1801l-118 -131h-280l257 282h282l241 -282h-271z" />
    <glyph glyph-name="ccircumflex" unicode="&#x109;" horiz-adv-x="1013" 
d="M965 826h-381v153q0 80 -13 108.5t-48 28.5t-47 -25t-12 -112v-626q0 -71 18 -106.5t53 -35.5q41 0 55.5 37t14.5 140v158h360q-1 -159 -11.5 -238.5t-67 -163t-147.5 -126t-225 -42.5q-171 0 -271 58.5t-141.5 164t-41.5 299.5v377q0 169 34 255t145 153.5t270 67.5
q158 0 270 -67t149 -169t37 -289zM504 1547l-118 -131h-280l257 282h282l241 -282h-271z" />
    <glyph glyph-name="Cdot" unicode="&#x10a;" horiz-adv-x="1134" 
d="M1067 913h-421v282q0 123 -13.5 153.5t-59.5 30.5q-52 0 -66 -37t-14 -160v-752q0 -118 14 -154t63 -36q47 0 61.5 36t14.5 169v203h421v-63q0 -251 -35.5 -356t-157 -184t-299.5 -79q-185 0 -305 67t-159 185.5t-39 356.5v473q0 175 12 262.5t71.5 168.5t165 127.5
t242.5 46.5q186 0 307 -72t159 -179.5t38 -334.5v-154zM681 1930v-260h-261v260h261z" />
    <glyph glyph-name="cdot" unicode="&#x10b;" horiz-adv-x="1013" 
d="M965 826h-381v153q0 80 -13 108.5t-48 28.5t-47 -25t-12 -112v-626q0 -71 18 -106.5t53 -35.5q41 0 55.5 37t14.5 140v158h360q-1 -159 -11.5 -238.5t-67 -163t-147.5 -126t-225 -42.5q-171 0 -271 58.5t-141.5 164t-41.5 299.5v377q0 169 34 255t145 153.5t270 67.5
q158 0 270 -67t149 -169t37 -289zM632 1676v-260h-261v260h261z" />
    <glyph glyph-name="Dcaron" unicode="&#x10e;" horiz-adv-x="1132" 
d="M84 1619h315q305 0 412.5 -28t163.5 -92t70 -142.5t14 -308.5v-567q0 -218 -20.5 -291.5t-71.5 -115t-126 -58t-226 -16.5h-531v1619zM505 1342v-1065q91 0 112 36.5t21 198.5v629q0 110 -7 141t-32 45.5t-94 14.5zM553 1821l111 131h271l-241 -282h-282l-257 282h280z
" />
    <glyph glyph-name="dcaron" unicode="&#x10f;" horiz-adv-x="1352" 
d="M991 1619v-1619h-404v96q-58 -60 -122 -90t-134 -30q-94 0 -163 49.5t-88.5 114.5t-19.5 212v621q0 153 19.5 217t89.5 112.5t167 48.5q75 0 137.5 -27t113.5 -81v376h404zM587 993q0 73 -12.5 98t-49.5 25q-36 0 -48.5 -22.5t-12.5 -100.5v-650q0 -81 12 -106.5
t46 -25.5q39 0 52 28.5t13 139.5v614zM1080 1619h272v-84q0 -322 -272 -379v117q58 35 67 90h-67v256z" />
    <glyph glyph-name="Emacron" unicode="&#x112;" horiz-adv-x="851" 
d="M84 1619h702v-324h-281v-307h263v-308h-263v-356h309v-324h-730v1619zM839 1843v-173h-796v173h796z" />
    <glyph glyph-name="emacron" unicode="&#x113;" horiz-adv-x="1047" 
d="M987 640h-523v-287q0 -90 13 -116t50 -26q46 0 61.5 34.5t15.5 133.5v175h383v-98q0 -123 -15.5 -189t-72.5 -141t-144.5 -112.5t-219.5 -37.5q-128 0 -226 37t-152.5 101.5t-75.5 142t-21 225.5v387q0 174 47 274.5t154 154t246 53.5q170 0 280.5 -64.5t155 -171
t44.5 -299.5v-176zM582 856v97q0 103 -11 133t-45 30q-42 0 -52 -25.5t-10 -137.5v-97h118zM923 1589v-173h-796v173h796z" />
    <glyph glyph-name="Ebreve" unicode="&#x114;" horiz-adv-x="851" 
d="M84 1619h702v-324h-281v-307h263v-308h-263v-356h309v-324h-730v1619zM561 1972h170q-6 -136 -79.5 -219t-204.5 -83q-132 0 -204.5 83.5t-78.5 218.5h170q12 -137 113 -137q102 0 114 137z" />
    <glyph glyph-name="ebreve" unicode="&#x115;" horiz-adv-x="1047" 
d="M987 640h-523v-287q0 -90 13 -116t50 -26q46 0 61.5 34.5t15.5 133.5v175h383v-98q0 -123 -15.5 -189t-72.5 -141t-144.5 -112.5t-219.5 -37.5q-128 0 -226 37t-152.5 101.5t-75.5 142t-21 225.5v387q0 174 47 274.5t154 154t246 53.5q170 0 280.5 -64.5t155 -171
t44.5 -299.5v-176zM582 856v97q0 103 -11 133t-45 30q-42 0 -52 -25.5t-10 -137.5v-97h118zM622 1718h170q-6 -136 -79.5 -219t-204.5 -83q-132 0 -204.5 83.5t-78.5 218.5h170q12 -137 113 -137q102 0 114 137z" />
    <glyph glyph-name="Edot" unicode="&#x116;" horiz-adv-x="851" 
d="M84 1619h702v-324h-281v-307h263v-308h-263v-356h309v-324h-730v1619zM583 1930v-260h-261v260h261z" />
    <glyph glyph-name="edot" unicode="&#x117;" horiz-adv-x="1047" 
d="M987 640h-523v-287q0 -90 13 -116t50 -26q46 0 61.5 34.5t15.5 133.5v175h383v-98q0 -123 -15.5 -189t-72.5 -141t-144.5 -112.5t-219.5 -37.5q-128 0 -226 37t-152.5 101.5t-75.5 142t-21 225.5v387q0 174 47 274.5t154 154t246 53.5q170 0 280.5 -64.5t155 -171
t44.5 -299.5v-176zM582 856v97q0 103 -11 133t-45 30q-42 0 -52 -25.5t-10 -137.5v-97h118zM632 1676v-260h-261v260h261z" />
    <glyph glyph-name="Eogonek" unicode="&#x118;" horiz-adv-x="850" 
d="M571 0h-487v1620h702v-324h-280v-309h262v-307h-262v-356h307v-324h-94q-86 -85 -86 -135q0 -64 72 -64q49 0 114 27l41 -100q-96 -45 -174 -45q-91 0 -145 43t-54 112q0 83 84 162z" />
    <glyph glyph-name="eogonek" unicode="&#x119;" horiz-adv-x="1047" 
d="M614 0q-86 -82 -86 -135q0 -64 72 -64q50 0 115 27l41 -100q-96 -45 -174 -45q-91 0 -145 43t-54 112q0 83 84 162q-118 8 -203 45.5t-133 105.5t-60 141t-12 189v387q0 108 17 190t70.5 145.5t144.5 93.5t215 30q188 0 298.5 -59.5t145.5 -168.5t35 -284v-176h-522v-287
q0 -95 16 -118t47 -23q41 0 59.5 30.5t18.5 108.5v205h381v-98q0 -110 -12.5 -177t-63 -138t-121.5 -103.5t-174 -38.5zM463 1018v-162h119v96q0 94 -9.5 128t-48.5 34q-31 0 -46 -19t-15 -77z" />
    <glyph glyph-name="Ecaron" unicode="&#x11a;" horiz-adv-x="851" 
d="M84 1619h702v-324h-281v-307h263v-308h-263v-356h309v-324h-730v1619zM447 1821l111 131h271l-241 -282h-282l-257 282h280z" />
    <glyph glyph-name="ecaron" unicode="&#x11b;" horiz-adv-x="1047" 
d="M987 640h-523v-287q0 -90 13 -116t50 -26q46 0 61.5 34.5t15.5 133.5v175h383v-98q0 -123 -15.5 -189t-72.5 -141t-144.5 -112.5t-219.5 -37.5q-128 0 -226 37t-152.5 101.5t-75.5 142t-21 225.5v387q0 174 47 274.5t154 154t246 53.5q170 0 280.5 -64.5t155 -171
t44.5 -299.5v-176zM582 856v97q0 103 -11 133t-45 30q-42 0 -52 -25.5t-10 -137.5v-97h118zM509 1567l111 131h271l-241 -282h-282l-257 282h280z" />
    <glyph glyph-name="Gcircumflex" unicode="&#x11c;" horiz-adv-x="1129" 
d="M1050 1021h-421v147q0 139 -12 174t-57 35q-39 0 -53 -30t-14 -154v-777q0 -109 14 -143.5t56 -34.5q46 0 62.5 39t16.5 152v192h-85v246h493v-869h-265l-39 116q-43 -75 -108.5 -112.5t-154.5 -37.5q-106 0 -198.5 51.5t-140.5 127.5t-60 159.5t-12 250.5v481
q0 232 25 337t143.5 192.5t306.5 87.5q185 0 307 -76t159 -180.5t37 -303.5v-70zM568 1801l-118 -131h-280l257 282h282l241 -282h-271z" />
    <glyph glyph-name="gcircumflex" unicode="&#x11d;" horiz-adv-x="1062" 
d="M990 1327v-1022q0 -207 -9.5 -267.5t-67.5 -128t-161.5 -103t-260.5 -35.5q-193 0 -310 65.5t-121 257.5h392q0 -88 64 -88q46 0 61 27t15 113v100q-52 -47 -109.5 -71t-120.5 -24q-109 0 -179.5 44t-96.5 115.5t-26 203.5v482q0 189 68 272t207 83q76 0 138.5 -31
t111.5 -93l29 100h376zM585 975q0 91 -10.5 116t-46.5 25q-35 0 -49.5 -28.5t-14.5 -112.5v-446q0 -89 11 -115.5t46 -26.5q40 0 52 32t12 145v411zM554 1547l-118 -131h-280l257 282h282l241 -282h-271z" />
    <glyph glyph-name="Gdot" unicode="&#x120;" horiz-adv-x="1129" 
d="M1050 1021h-421v147q0 139 -12 174t-57 35q-39 0 -53 -30t-14 -154v-777q0 -109 14 -143.5t56 -34.5q46 0 62.5 39t16.5 152v192h-85v246h493v-869h-265l-39 116q-43 -75 -108.5 -112.5t-154.5 -37.5q-106 0 -198.5 51.5t-140.5 127.5t-60 159.5t-12 250.5v481
q0 232 25 337t143.5 192.5t306.5 87.5q185 0 307 -76t159 -180.5t37 -303.5v-70zM695 1930v-260h-261v260h261z" />
    <glyph glyph-name="gdot" unicode="&#x121;" horiz-adv-x="1062" 
d="M990 1327v-1022q0 -207 -9.5 -267.5t-67.5 -128t-161.5 -103t-260.5 -35.5q-193 0 -310 65.5t-121 257.5h392q0 -88 64 -88q46 0 61 27t15 113v100q-52 -47 -109.5 -71t-120.5 -24q-109 0 -179.5 44t-96.5 115.5t-26 203.5v482q0 189 68 272t207 83q76 0 138.5 -31
t111.5 -93l29 100h376zM585 975q0 91 -10.5 116t-46.5 25q-35 0 -49.5 -28.5t-14.5 -112.5v-446q0 -89 11 -115.5t46 -26.5q40 0 52 32t12 145v411zM683 1676v-260h-261v260h261z" />
    <glyph glyph-name="Gcedilla" unicode="&#x122;" horiz-adv-x="1129" 
d="M1050 1023h-421v147q0 139 -12 174t-57 35q-39 0 -53 -30t-14 -154v-777q0 -109 14 -143.5t56 -34.5q46 0 62.5 39t16.5 152v192h-85v246h493v-869h-265l-39 116q-43 -75 -108.5 -112.5t-154.5 -37.5q-106 0 -198.5 51.5t-140.5 127.5t-60 159.5t-12 250.5v481
q0 232 25 337t143.5 192.5t306.5 87.5q185 0 307 -76t159 -180.5t37 -303.5v-70zM428 -80h272v-84q0 -322 -272 -379v117q58 35 67 90h-67v256z" />
    <glyph glyph-name="gcedilla" unicode="&#x123;" horiz-adv-x="1062" 
d="M990 1327v-1022q0 -207 -9.5 -267.5t-67.5 -128t-161.5 -103t-260.5 -35.5q-193 0 -310 65.5t-121 257.5h392q0 -88 64 -88q46 0 61 27t15 113v100q-52 -47 -109.5 -71t-120.5 -24q-109 0 -179.5 44t-96.5 115.5t-26 203.5v482q0 189 68 272t207 83q76 0 138.5 -31
t111.5 -93l29 100h376zM585 975q0 91 -10.5 116t-46.5 25q-35 0 -49.5 -28.5t-14.5 -112.5v-446q0 -89 11 -115.5t46 -26.5q40 0 52 32t12 145v411zM402 1416v145q0 114 27.5 187t94 124t149.5 68v-116q-59 -34 -67 -91h67v-317h-271z" />
    <glyph glyph-name="Hcircumflex" unicode="&#x124;" horiz-adv-x="1137" 
d="M1052 1619v-1619h-421v680h-126v-680h-421v1619h421v-579h126v579h421zM570 1801l-118 -131h-280l257 282h282l241 -282h-271z" />
    <glyph glyph-name="hcircumflex" unicode="&#x125;" horiz-adv-x="1073" 
d="M476 1619v-364q52 48 112.5 72t129.5 24q106 0 180.5 -54t91 -124.5t16.5 -257.5v-915h-404v934q0 116 -11.5 149t-51.5 33q-37 0 -50 -34t-13 -135v-947h-404v1619h404zM550 1801l-118 -131h-280l257 282h282l241 -282h-271z" />
    <glyph glyph-name="Hbar" unicode="&#x126;" horiz-adv-x="1137" 
d="M84 1403v217h422v-217h125v217h422v-217h67v-172h-67v-1231h-422v680h-125v-680h-422v1231h-70v172h70zM506 1231v-191h125v191h-125z" />
    <glyph glyph-name="hbar" unicode="&#x127;" horiz-adv-x="1073" 
d="M72 1559v61h403v-61h94v-173h-94v-131q76 72 242 72q115 0 186 -41t87 -119t16 -252v-915h-404v934q0 106 -10 143t-53 37q-36 0 -50 -33t-14 -133v-948h-403v1386h-72v173h72z" />
    <glyph glyph-name="Itilde" unicode="&#x128;" horiz-adv-x="590" 
d="M505 1619v-1619h-421v1619h421zM719 1860q-46 -101 -113 -141t-118 -40q-71 0 -153 33l-74 29q-71 29 -106 29q-74 0 -122 -100l-158 105q110 194 248 194q72 0 157 -32l62 -23q78 -29 106 -29q83 0 110 90z" />
    <glyph glyph-name="itilde" unicode="&#x129;" horiz-adv-x="561" 
d="M488 1327v-1327h-416v1327h416zM703 1606q-46 -101 -113 -141t-118 -40q-71 0 -153 33l-74 29q-71 29 -106 29q-74 0 -122 -100l-158 105q110 194 248 194q72 0 157 -32l62 -23q78 -29 106 -29q83 0 110 90z" />
    <glyph glyph-name="Imacron" unicode="&#x12a;" horiz-adv-x="590" 
d="M505 1619v-1619h-421v1619h421zM694 1843v-173h-796v173h796z" />
    <glyph glyph-name="imacron" unicode="&#x12b;" horiz-adv-x="561" 
d="M488 1327v-1327h-416v1327h416zM679 1589v-173h-796v173h796z" />
    <glyph glyph-name="Ibreve" unicode="&#x12c;" horiz-adv-x="590" 
d="M505 1619v-1619h-421v1619h421zM403 1972h170q-6 -136 -79.5 -219t-204.5 -83q-132 0 -204.5 83.5t-78.5 218.5h170q12 -137 113 -137q102 0 114 137z" />
    <glyph glyph-name="ibreve" unicode="&#x12d;" horiz-adv-x="561" 
d="M488 1327v-1327h-416v1327h416zM395 1718h170q-6 -136 -79.5 -219t-204.5 -83q-132 0 -204.5 83.5t-78.5 218.5h170q12 -137 113 -137q102 0 114 137z" />
    <glyph glyph-name="Iogonek" unicode="&#x12e;" horiz-adv-x="590" 
d="M240 0h-156v1620h422v-1620h-119q-86 -85 -86 -135q0 -64 72 -64q50 0 114 27l41 -100q-96 -45 -174 -45q-91 0 -144.5 43t-53.5 112q0 83 84 162z" />
    <glyph glyph-name="iogonek" unicode="&#x12f;" horiz-adv-x="561" 
d="M219 0h-147v1327h415v-1327h-120q-86 -85 -86 -135q0 -64 71 -64q50 0 115 27l41 -100q-96 -45 -174 -45q-91 0 -145 43t-54 112q0 83 84 162z" />
    <glyph glyph-name="IJ" unicode="&#x132;" horiz-adv-x="1282" 
d="M84 0v1620h422v-1620h-422zM776 412v1208h422v-1260q0 -222 -73.5 -291t-297.5 -69h-211v283l56 -2q54 0 79 29t25 102z" />
    <glyph glyph-name="ij" unicode="&#x133;" horiz-adv-x="1133" 
d="M72 1411v209h415v-209h-415zM645 1411v209h416v-209h-416zM72 0v1327h415v-1327h-415zM645 156v1171h416v-1175q0 -198 -78.5 -268t-271.5 -70h-156v213q56 0 69.5 5t17 28t3.5 96z" />
    <glyph glyph-name="Jcircumflex" unicode="&#x134;" horiz-adv-x="678" 
d="M599 1619v-1082q0 -243 -5 -312.5t-45.5 -125.5t-110 -77.5t-209.5 -21.5h-211v283q38 -3 55 -3q45 0 71 22t30 54t4 124v1139h421zM382 1801l-118 -131h-280l257 282h282l241 -282h-271z" />
    <glyph glyph-name="jcircumflex" unicode="&#x135;" horiz-adv-x="573" 
d="M397 1501l-110 131l-117 -131h-281l258 283h281l242 -283h-273zM84 156v1171h416v-1175q0 -198 -78.5 -268t-271.5 -70h-156v213q56 0 69.5 5t17 28t3.5 96z" />
    <glyph glyph-name="Kcedilla" unicode="&#x136;" horiz-adv-x="1099" 
d="M1087 1619l-241 -731l264 -888h-435l-170 694v-694h-421v1619h421v-629l187 629h395zM459 -80h272v-84q0 -322 -272 -379v117q58 35 67 90h-67v256z" />
    <glyph glyph-name="kcedilla" unicode="&#x137;" horiz-adv-x="979" 
d="M942 1327l-164 -529l213 -798h-389l-126 578v-578h-404v1619h404v-680l126 388h340zM397 -80h272v-84q0 -322 -272 -379v117q58 35 67 90h-67v256z" />
    <glyph glyph-name="kgreenlandic" unicode="&#x138;" horiz-adv-x="1059" 
d="M475 817l217 510h350l-249 -579l270 -748h-393l-195 586v-586h-403v1327h403v-510z" />
    <glyph glyph-name="Lacute" unicode="&#x139;" horiz-adv-x="779" 
d="M505 1619v-1295h256v-324h-677v1619h421zM692 1941l-329 -271h-203l176 271h356z" />
    <glyph glyph-name="lacute" unicode="&#x13a;" horiz-adv-x="561" 
d="M488 1619v-1619h-416v1619h416zM626 1941l-329 -271h-203l176 271h356z" />
    <glyph glyph-name="Lcedilla" unicode="&#x13b;" horiz-adv-x="779" 
d="M505 1619v-1295h256v-324h-677v1619h421zM317 -80h272v-84q0 -322 -272 -379v117q58 35 67 90h-67v256z" />
    <glyph glyph-name="lcedilla" unicode="&#x13c;" horiz-adv-x="561" 
d="M488 1619v-1619h-416v1619h416zM144 -80h272v-84q0 -322 -272 -379v117q58 35 67 90h-67v256z" />
    <glyph glyph-name="Lcaron" unicode="&#x13d;" horiz-adv-x="885" 
d="M505 1619v-1295h256v-324h-677v1619h421zM596 1620h272v-84q0 -322 -272 -379v117q58 35 67 90h-67v256z" />
    <glyph glyph-name="lcaron" unicode="&#x13e;" horiz-adv-x="879" 
d="M488 1619v-1619h-416v1619h416zM586 1620h272v-84q0 -322 -272 -379v117q58 35 67 90h-67v256z" />
    <glyph glyph-name="Ldot" unicode="&#x13f;" horiz-adv-x="872" 
d="M505 1619v-1295h256v-324h-677v1619h421zM835 1228v-260h-261v260h261z" />
    <glyph glyph-name="ldot" unicode="&#x140;" horiz-adv-x="872" 
d="M488 1619v-1619h-416v1619h416zM835 1228v-260h-261v260h261z" />
    <glyph glyph-name="Nacute" unicode="&#x143;" horiz-adv-x="1109" 
d="M1024 1619v-1619h-369l-219 736v-736h-352v1619h352l236 -729v729h352zM876 1941l-329 -271h-203l176 271h356z" />
    <glyph glyph-name="nacute" unicode="&#x144;" horiz-adv-x="1071" 
d="M483 1327l-7 -122q44 73 107.5 109.5t146.5 36.5q104 0 170 -49t85 -123.5t19 -248.5v-930h-404v919q0 137 -9 167t-50 30q-43 0 -54 -34.5t-11 -184.5v-897h-404v1327h411zM827 1687l-329 -271h-203l176 271h356z" />
    <glyph glyph-name="Ncedilla" unicode="&#x145;" horiz-adv-x="1109" 
d="M1024 1619v-1619h-369l-219 736v-736h-352v1619h352l236 -729v729h352zM418 -80h272v-84q0 -322 -272 -379v117q58 35 67 90h-67v256z" />
    <glyph glyph-name="ncedilla" unicode="&#x146;" horiz-adv-x="1071" 
d="M483 1327l-7 -122q44 73 107.5 109.5t146.5 36.5q104 0 170 -49t85 -123.5t19 -248.5v-930h-404v919q0 137 -9 167t-50 30q-43 0 -54 -34.5t-11 -184.5v-897h-404v1327h411zM399 -80h272v-84q0 -322 -272 -379v117q58 35 67 90h-67v256z" />
    <glyph glyph-name="Ncaron" unicode="&#x147;" horiz-adv-x="1109" 
d="M1024 1619v-1619h-369l-219 736v-736h-352v1619h352l236 -729v729h352zM539 1821l111 131h271l-241 -282h-282l-257 282h280z" />
    <glyph glyph-name="ncaron" unicode="&#x148;" horiz-adv-x="1071" 
d="M483 1327l-7 -122q44 73 107.5 109.5t146.5 36.5q104 0 170 -49t85 -123.5t19 -248.5v-930h-404v919q0 137 -9 167t-50 30q-43 0 -54 -34.5t-11 -184.5v-897h-404v1327h411zM529 1567l111 131h271l-241 -282h-282l-257 282h280z" />
    <glyph glyph-name="napostrophe" unicode="&#x149;" horiz-adv-x="1341" 
d="M749 1321l-7 -122q44 73 107.5 109.5t146.5 36.5q104 0 170 -49t85 -123.5t19 -248.5v-930h-404v919q0 137 -9 167t-50 30q-43 0 -54 -34.5t-11 -184.5v-897h-404v1327h411zM10 1620h272v-84q0 -322 -272 -379v117q58 35 67 90h-67v256z" />
    <glyph glyph-name="Eng" unicode="&#x14a;" horiz-adv-x="1133" 
d="M684 0h-100v213q29 1 39 25.5t10 103.5v860q0 102 -10.5 140t-55.5 38q-26 0 -43.5 -23.5t-17.5 -45.5v-1311h-422v1620h422v-84q21 28 79.5 54t112.5 26q152 0 218.5 -66t102.5 -157.5t36 -444.5v-276q0 -223 -11 -329t-61 -186t-128 -118.5t-171 -38.5z" />
    <glyph glyph-name="eng" unicode="&#x14b;" horiz-adv-x="1071" 
d="M668 -252h-156v213q62 0 75 8t13 121v830q0 130 -8 163t-51 33q-47 0 -56.5 -41.5t-9.5 -177.5v-897h-403v1327h411l-8 -123q86 135 254 135q79 0 131.5 -18t89.5 -70t45.5 -119t8.5 -202v-838q0 -344 -336 -344z" />
    <glyph glyph-name="Omacron" unicode="&#x14c;" horiz-adv-x="1119" 
d="M1046 668q0 -244 -11.5 -345.5t-72 -185.5t-163.5 -129t-240 -45q-130 0 -233.5 42.5t-166.5 127.5t-75 185t-12 350v277q0 244 11.5 345.5t72 185.5t163.5 129t240 45q130 0 233.5 -42.5t166.5 -127.5t75 -185t12 -350v-277zM625 1200q0 113 -12.5 144.5t-51.5 31.5
q-33 0 -50.5 -25.5t-17.5 -150.5v-756q0 -141 11.5 -174t53.5 -33q43 0 55 38t12 181v744zM952 1843v-173h-796v173h796z" />
    <glyph glyph-name="omacron" unicode="&#x14d;" horiz-adv-x="1047" 
d="M986 861v-325q0 -179 -18 -262.5t-77 -156t-151.5 -107t-212.5 -34.5q-134 0 -227 29.5t-144.5 89t-73.5 144t-22 253.5v340q0 185 40 289t144 167t266 63q136 0 233.5 -40.5t150.5 -105.5t72.5 -134t19.5 -210zM582 961q0 102 -11 128.5t-47 26.5t-48 -26.5t-12 -128.5
v-599q0 -94 12 -122.5t47 -28.5q36 0 47.5 26t11.5 112v612zM919 1589v-173h-796v173h796z" />
    <glyph glyph-name="Obreve" unicode="&#x14e;" horiz-adv-x="1119" 
d="M1046 668q0 -244 -11.5 -345.5t-72 -185.5t-163.5 -129t-240 -45q-130 0 -233.5 42.5t-166.5 127.5t-75 185t-12 350v277q0 244 11.5 345.5t72 185.5t163.5 129t240 45q130 0 233.5 -42.5t166.5 -127.5t75 -185t12 -350v-277zM625 1200q0 113 -12.5 144.5t-51.5 31.5
q-33 0 -50.5 -25.5t-17.5 -150.5v-756q0 -141 11.5 -174t53.5 -33q43 0 55 38t12 181v744zM667 1972h170q-6 -136 -79.5 -219t-204.5 -83q-132 0 -204.5 83.5t-78.5 218.5h170q12 -137 113 -137q102 0 114 137z" />
    <glyph glyph-name="obreve" unicode="&#x14f;" horiz-adv-x="1047" 
d="M986 861v-325q0 -179 -18 -262.5t-77 -156t-151.5 -107t-212.5 -34.5q-134 0 -227 29.5t-144.5 89t-73.5 144t-22 253.5v340q0 185 40 289t144 167t266 63q136 0 233.5 -40.5t150.5 -105.5t72.5 -134t19.5 -210zM582 961q0 102 -11 128.5t-47 26.5t-48 -26.5t-12 -128.5
v-599q0 -94 12 -122.5t47 -28.5q36 0 47.5 26t11.5 112v612zM626 1718h170q-6 -136 -79.5 -219t-204.5 -83q-132 0 -204.5 83.5t-78.5 218.5h170q12 -137 113 -137q102 0 114 137z" />
    <glyph glyph-name="Odblacute" unicode="&#x150;" horiz-adv-x="1119" 
d="M1046 668q0 -244 -11.5 -345.5t-72 -185.5t-163.5 -129t-240 -45q-130 0 -233.5 42.5t-166.5 127.5t-75 185t-12 350v277q0 244 11.5 345.5t72 185.5t163.5 129t240 45q130 0 233.5 -42.5t166.5 -127.5t75 -185t12 -350v-277zM625 1200q0 113 -12.5 144.5t-51.5 31.5
q-33 0 -50.5 -25.5t-17.5 -150.5v-756q0 -141 11.5 -174t53.5 -33q43 0 55 38t12 181v744zM619 1980l-241 -310h-149l118 310h272zM1008 1980l-240 -310h-149l118 310h271z" />
    <glyph glyph-name="odblacute" unicode="&#x151;" horiz-adv-x="1047" 
d="M986 861v-325q0 -179 -18 -262.5t-77 -156t-151.5 -107t-212.5 -34.5q-134 0 -227 29.5t-144.5 89t-73.5 144t-22 253.5v340q0 185 40 289t144 167t266 63q136 0 233.5 -40.5t150.5 -105.5t72.5 -134t19.5 -210zM582 961q0 102 -11 128.5t-47 26.5t-48 -26.5t-12 -128.5
v-599q0 -94 12 -122.5t47 -28.5q36 0 47.5 26t11.5 112v612zM578 1726l-241 -310h-149l118 310h272zM967 1726l-240 -310h-149l118 310h271z" />
    <glyph glyph-name="Racute" unicode="&#x154;" horiz-adv-x="1103" 
d="M84 1619h298q298 0 403.5 -23t172 -117.5t66.5 -301.5q0 -189 -47 -254t-185 -78q125 -31 168 -83t53.5 -95.5t10.5 -239.5v-427h-391v538q0 130 -20.5 161t-107.5 31v-730h-421v1619zM505 1342v-360q71 0 99.5 19.5t28.5 126.5v89q0 77 -27.5 101t-100.5 24zM847 2073
l-329 -271h-203l176 271h356z" />
    <glyph glyph-name="racute" unicode="&#x155;" horiz-adv-x="733" 
d="M476 1327l-16 -174q88 187 255 198v-467q-111 0 -163 -30t-64 -83.5t-12 -246.5v-524h-404v1327h404zM684 1772l-329 -271h-203l176 271h356z" />
    <glyph glyph-name="Rcedilla" unicode="&#x156;" horiz-adv-x="1103" 
d="M84 1619h298q298 0 403.5 -23t172 -117.5t66.5 -301.5q0 -189 -47 -254t-185 -78q125 -31 168 -83t53.5 -95.5t10.5 -239.5v-427h-391v538q0 130 -20.5 161t-107.5 31v-730h-421v1619zM505 1342v-360q71 0 99.5 19.5t28.5 126.5v89q0 77 -27.5 101t-100.5 24zM415 -80
h272v-84q0 -322 -272 -379v117q58 35 67 90h-67v256z" />
    <glyph glyph-name="rcedilla" unicode="&#x157;" horiz-adv-x="733" 
d="M476 1327l-16 -174q88 187 255 198v-467q-111 0 -163 -30t-64 -83.5t-12 -246.5v-524h-404v1327h404zM139 -80h272v-84q0 -322 -272 -379v117q58 35 67 90h-67v256z" />
    <glyph glyph-name="Rcaron" unicode="&#x158;" horiz-adv-x="1103" 
d="M84 1619h298q298 0 403.5 -23t172 -117.5t66.5 -301.5q0 -189 -47 -254t-185 -78q125 -31 168 -83t53.5 -95.5t10.5 -239.5v-427h-391v538q0 130 -20.5 161t-107.5 31v-730h-421v1619zM505 1342v-360q71 0 99.5 19.5t28.5 126.5v89q0 77 -27.5 101t-100.5 24zM525 1821
l111 131h271l-241 -282h-282l-257 282h280z" />
    <glyph glyph-name="rcaron" unicode="&#x159;" horiz-adv-x="733" 
d="M476 1327l-16 -174q88 187 255 198v-467q-111 0 -163 -30t-64 -83.5t-12 -246.5v-524h-404v1327h404zM369 1567l111 131h271l-241 -282h-282l-257 282h280z" />
    <glyph glyph-name="Sacute" unicode="&#x15a;" horiz-adv-x="1059" 
d="M976 1126h-391v120q0 84 -15 107t-50 23q-38 0 -57.5 -31t-19.5 -94q0 -81 22 -122q21 -41 119 -99q281 -167 354 -274t73 -345q0 -173 -40.5 -255t-156.5 -137.5t-270 -55.5q-169 0 -288.5 64t-156.5 163t-37 281v106h391v-197q0 -91 16.5 -117t58.5 -26t62.5 33
t20.5 98q0 143 -39 187q-40 44 -197 147q-157 104 -208 151t-84.5 130t-33.5 212q0 186 47.5 272t153.5 134.5t256 48.5q164 0 279.5 -53t153 -133.5t37.5 -273.5v-64zM851 1941l-329 -271h-203l176 271h356z" />
    <glyph glyph-name="sacute" unicode="&#x15b;" horiz-adv-x="964" 
d="M897 903h-358v72q0 92 -10.5 116.5t-52.5 24.5q-34 0 -51 -22.5t-17 -67.5q0 -61 8.5 -89.5t51 -62.5t174.5 -99q176 -86 231 -162t55 -221q0 -162 -42 -244.5t-140.5 -127t-237.5 -44.5q-154 0 -263.5 48t-150.5 130t-41 248v64h358v-84q0 -107 13.5 -139t53.5 -32
q43 0 60 21.5t17 90.5q0 95 -22 119q-23 24 -235 142q-178 100 -217 181.5t-39 193.5q0 159 42 234.5t142.5 116.5t233.5 41q132 0 224.5 -33.5t142 -88.5t60 -102t10.5 -147v-77zM811 1687l-329 -271h-203l176 271h356z" />
    <glyph glyph-name="Scircumflex" unicode="&#x15c;" horiz-adv-x="1059" 
d="M976 1126h-391v120q0 84 -15 107t-50 23q-38 0 -57.5 -31t-19.5 -94q0 -81 22 -122q21 -41 119 -99q281 -167 354 -274t73 -345q0 -173 -40.5 -255t-156.5 -137.5t-270 -55.5q-169 0 -288.5 64t-156.5 163t-37 281v106h391v-197q0 -91 16.5 -117t58.5 -26t62.5 33
t20.5 98q0 143 -39 187q-40 44 -197 147q-157 104 -208 151t-84.5 130t-33.5 212q0 186 47.5 272t153.5 134.5t256 48.5q164 0 279.5 -53t153 -133.5t37.5 -273.5v-64zM507 1801l-118 -131h-280l257 282h282l241 -282h-271z" />
    <glyph glyph-name="scircumflex" unicode="&#x15d;" horiz-adv-x="964" 
d="M897 903h-358v72q0 92 -10.5 116.5t-52.5 24.5q-34 0 -51 -22.5t-17 -67.5q0 -61 8.5 -89.5t51 -62.5t174.5 -99q176 -86 231 -162t55 -221q0 -162 -42 -244.5t-140.5 -127t-237.5 -44.5q-154 0 -263.5 48t-150.5 130t-41 248v64h358v-84q0 -107 13.5 -139t53.5 -32
q43 0 60 21.5t17 90.5q0 95 -22 119q-23 24 -235 142q-178 100 -217 181.5t-39 193.5q0 159 42 234.5t142.5 116.5t233.5 41q132 0 224.5 -33.5t142 -88.5t60 -102t10.5 -147v-77zM464 1547l-118 -131h-280l257 282h282l241 -282h-271z" />
    <glyph glyph-name="Tcedilla" unicode="&#x162;" horiz-adv-x="944" 
d="M932 1619v-324h-250v-1295h-421v1295h-249v324h920zM336 -80h272v-84q0 -322 -272 -379v117q58 35 67 90h-67v256z" />
    <glyph glyph-name="tcedilla" unicode="&#x163;" horiz-adv-x="624" 
d="M498 1504v-209h109v-210h-109v-710q0 -131 13.5 -146t112.5 -15v-214h-163q-138 0 -197 11.5t-104 53t-56 95t-11 251.5v674h-87v210h87v209h405zM206 -80h272v-84q0 -322 -272 -379v117q58 35 67 90h-67v256z" />
    <glyph glyph-name="Tcaron" unicode="&#x164;" horiz-adv-x="944" 
d="M932 1619v-324h-250v-1295h-421v1295h-249v324h920zM472 1821l111 131h271l-241 -282h-282l-257 282h280z" />
    <glyph glyph-name="tcaron" unicode="&#x165;" horiz-adv-x="944" 
d="M498 1504v-209h109v-210h-109v-710q0 -131 13.5 -146t112.5 -15v-214h-163q-138 0 -197 11.5t-104 53t-56 95t-11 251.5v674h-87v210h87v209h405zM672 1619h272v-84q0 -322 -272 -379v117q58 35 67 90h-67v256z" />
    <glyph glyph-name="Tbar" unicode="&#x166;" horiz-adv-x="944" 
d="M262 911v385h-250v324h920v-324h-248v-385h160v-172h-160v-739h-422v739h-158v172h158z" />
    <glyph glyph-name="tbar" unicode="&#x167;" horiz-adv-x="623" 
d="M94 911v174h-88v209h88v211h404v-211h108v-209h-108v-174h106v-172h-106v-364q0 -93 5 -121t25 -34.5t97 -6.5v-213h-164q-127 0 -190 10t-111 53.5t-57 110t-9 238.5v327h-88v172h88z" />
    <glyph glyph-name="Utilde" unicode="&#x168;" horiz-adv-x="1120" 
d="M1041 1635v-1082q0 -184 -12 -258.5t-71 -153t-155.5 -119t-227.5 -40.5q-145 0 -256 48t-166 125t-65 162.5t-10 359.5v958h421v-1214q0 -106 11.5 -135.5t46.5 -29.5q40 0 51.5 32.5t11.5 153.5v1193h421zM975 1860q-46 -101 -113 -141t-118 -40q-71 0 -153 33l-74 29
q-71 29 -106 29q-74 0 -122 -100l-158 105q110 194 248 194q72 0 157 -32l62 -23q78 -29 106 -29q83 0 110 90z" />
    <glyph glyph-name="utilde" unicode="&#x169;" horiz-adv-x="1070" 
d="M997 1338v-1327h-411l7 110q-42 -67 -103.5 -100.5t-141.5 -33.5q-91 0 -151 32t-88.5 85t-35.5 110.5t-7 228.5v895h404v-903q0 -155 9.5 -184t51.5 -29q45 0 53.5 30t8.5 193v893h404zM940 1606q-46 -101 -113 -141t-118 -40q-71 0 -153 33l-74 29q-71 29 -106 29
q-74 0 -122 -100l-158 105q110 194 248 194q72 0 157 -32l62 -23q78 -29 106 -29q83 0 110 90z" />
    <glyph glyph-name="Umacron" unicode="&#x16a;" horiz-adv-x="1120" 
d="M1041 1635v-1082q0 -184 -12 -258.5t-71 -153t-155.5 -119t-227.5 -40.5q-145 0 -256 48t-166 125t-65 162.5t-10 359.5v958h421v-1214q0 -106 11.5 -135.5t46.5 -29.5q40 0 51.5 32.5t11.5 153.5v1193h421zM956 1843v-173h-796v173h796z" />
    <glyph glyph-name="umacron" unicode="&#x16b;" horiz-adv-x="1070" 
d="M997 1327v-1327h-411l7 110q-42 -67 -103.5 -100.5t-141.5 -33.5q-91 0 -151 32t-88.5 85t-35.5 110.5t-7 228.5v895h404v-903q0 -155 9.5 -184t51.5 -29q45 0 53.5 30t8.5 193v893h404zM925 1589v-173h-796v173h796z" />
    <glyph glyph-name="Ubreve" unicode="&#x16c;" horiz-adv-x="1120" 
d="M1041 1635v-1082q0 -184 -12 -258.5t-71 -153t-155.5 -119t-227.5 -40.5q-145 0 -256 48t-166 125t-65 162.5t-10 359.5v958h421v-1214q0 -106 11.5 -135.5t46.5 -29.5q40 0 51.5 32.5t11.5 153.5v1193h421zM669 1972h170q-6 -136 -79.5 -219t-204.5 -83
q-132 0 -204.5 83.5t-78.5 218.5h170q12 -137 113 -137q102 0 114 137z" />
    <glyph glyph-name="ubreve" unicode="&#x16d;" horiz-adv-x="1070" 
d="M997 1327v-1327h-411l7 110q-42 -67 -103.5 -100.5t-141.5 -33.5q-91 0 -151 32t-88.5 85t-35.5 110.5t-7 228.5v895h404v-903q0 -155 9.5 -184t51.5 -29q45 0 53.5 30t8.5 193v893h404zM645 1718h170q-6 -136 -79.5 -219t-204.5 -83q-132 0 -204.5 83.5t-78.5 218.5h170
q12 -137 113 -137q102 0 114 137z" />
    <glyph glyph-name="Uring" unicode="&#x16e;" horiz-adv-x="1120" 
d="M1041 1635v-1082q0 -184 -12 -258.5t-71 -153t-155.5 -119t-227.5 -40.5q-145 0 -256 48t-166 125t-65 162.5t-10 359.5v958h421v-1214q0 -106 11.5 -135.5t46.5 -29.5q40 0 51.5 32.5t11.5 153.5v1193h421zM555 2091q84 0 147 -60.5t63 -150.5q0 -87 -62 -148.5
t-148 -61.5q-88 0 -149.5 61.5t-61.5 148.5t62 149t149 62zM553 1959q-33 0 -57.5 -24t-24.5 -59q0 -34 24.5 -58t57.5 -24q34 0 58.5 24t24.5 58q0 35 -24.5 59t-58.5 24z" />
    <glyph glyph-name="uring" unicode="&#x16f;" horiz-adv-x="1070" 
d="M997 1327v-1327h-411l7 110q-42 -67 -103.5 -100.5t-141.5 -33.5q-91 0 -151 32t-88.5 85t-35.5 110.5t-7 228.5v895h404v-903q0 -155 9.5 -184t51.5 -29q45 0 53.5 30t8.5 193v893h404zM530 1837q84 0 147 -60.5t63 -150.5q0 -87 -62 -148.5t-148 -61.5
q-88 0 -149.5 61.5t-61.5 148.5t62 149t149 62zM528 1705q-33 0 -57.5 -24t-24.5 -59q0 -34 24.5 -58t57.5 -24q34 0 58.5 24t24.5 58q0 35 -24.5 59t-58.5 24z" />
    <glyph glyph-name="Udblacute" unicode="&#x170;" horiz-adv-x="1120" 
d="M1041 1635v-1082q0 -184 -12 -258.5t-71 -153t-155.5 -119t-227.5 -40.5q-145 0 -256 48t-166 125t-65 162.5t-10 359.5v958h421v-1214q0 -106 11.5 -135.5t46.5 -29.5q40 0 51.5 32.5t11.5 153.5v1193h421zM597 1980l-241 -310h-149l118 310h272zM986 1980l-240 -310
h-149l118 310h271z" />
    <glyph glyph-name="udblacute" unicode="&#x171;" horiz-adv-x="1070" 
d="M997 1327v-1327h-411l7 110q-42 -67 -103.5 -100.5t-141.5 -33.5q-91 0 -151 32t-88.5 85t-35.5 110.5t-7 228.5v895h404v-903q0 -155 9.5 -184t51.5 -29q45 0 53.5 30t8.5 193v893h404zM570 1726l-241 -310h-149l118 310h272zM959 1726l-240 -310h-149l118 310h271z" />
    <glyph glyph-name="Uogonek" unicode="&#x172;" horiz-adv-x="1120" 
d="M494 -2q-130 10 -221 50t-133 110t-52 150.5t-10 228.5v1083h422v-1251q0 -87 15 -108t44 -21q30 0 46 25t16 126v1229h421v-1157q0 -128 -20 -209t-75.5 -142t-129.5 -85t-180 -29q-82 -84 -82 -133q0 -64 72 -64q50 0 114 27l41 -100q-96 -45 -174 -45q-91 0 -144.5 43
t-53.5 112q0 81 84 160z" />
    <glyph glyph-name="uogonek" unicode="&#x173;" horiz-adv-x="1069" 
d="M801 0h-215l6 111q-45 -64 -100 -88.5t-171 -24.5q-77 0 -123 15.5t-82.5 71.5t-43 119t-6.5 228v895h403v-1026q0 -90 61 -90q34 0 49 21.5t15 91.5v1003h403v-1327h-49q-86 -85 -86 -135q0 -64 72 -64q50 0 115 27l41 -100q-97 -45 -175 -45q-90 0 -144 43t-54 112
q0 83 84 162z" />
    <glyph glyph-name="Wcircumflex" unicode="&#x174;" horiz-adv-x="1668" 
d="M1668 1619l-187 -1619h-526q-72 373 -127 848q-25 -203 -117 -848h-523l-188 1619h409l43 -565l44 -545q23 423 116 1110h438q9 -71 46 -534l46 -615q35 587 117 1149h409zM834 1801l-118 -131h-280l257 282h282l241 -282h-271z" />
    <glyph glyph-name="wcircumflex" unicode="&#x175;" horiz-adv-x="1371" 
d="M1377 1327l-161 -1327h-439q-36 243 -83 640q-16 -174 -45 -352l-45 -288h-439l-171 1327h348q4 -52 88 -759q6 72 90 759h335l82 -759q19 332 92 759h348zM689 1547l-118 -131h-280l257 282h282l241 -282h-271z" />
    <glyph glyph-name="Ycircumflex" unicode="&#x176;" horiz-adv-x="969" 
d="M981 1619l-307 -1033v-586h-390v586l-296 1033h387q91 -473 102 -637q35 259 117 637h387zM486 1801l-118 -131h-280l257 282h282l241 -282h-271z" />
    <glyph glyph-name="ycircumflex" unicode="&#x177;" horiz-adv-x="918" 
d="M918 1327l-116 -960q-27 -228 -45.5 -311t-61.5 -137t-119.5 -79.5t-244.5 -25.5h-245v212q94 0 121 9.5t27 42.5q0 16 -25 139l-221 1110h367l132 -895l64 895h367zM453 1547l-118 -131h-280l257 282h282l241 -282h-271z" />
    <glyph glyph-name="Zacute" unicode="&#x179;" horiz-adv-x="813" 
d="M788 1619v-324l-314 -971h314v-324h-776v235l324 1060h-286v324h738zM718 1941l-329 -271h-203l176 271h356z" />
    <glyph glyph-name="zacute" unicode="&#x17a;" horiz-adv-x="719" 
d="M701 1327v-294l-298 -767h298v-266h-689v278l305 783h-274v266h658zM684 1687l-329 -271h-203l176 271h356z" />
    <glyph glyph-name="Zdot" unicode="&#x17b;" horiz-adv-x="813" 
d="M788 1619v-324l-314 -971h314v-324h-776v235l324 1060h-286v324h738zM546 1930v-260h-261v260h261z" />
    <glyph glyph-name="zdot" unicode="&#x17c;" horiz-adv-x="719" 
d="M701 1327v-294l-298 -767h298v-266h-689v278l305 783h-274v266h658zM492 1676v-260h-261v260h261z" />
    <glyph glyph-name="longs" unicode="&#x17f;" horiz-adv-x="590" 
d="M559 1417q-84 0 -84 -168v-1249h-403v1081q0 179 12 268.5t67.5 162t159.5 107t248 34.5h25v-236h-25z" />
    <glyph glyph-name="Aringacute" unicode="&#x1fa;" horiz-adv-x="1040" 
d="M811 1619l241 -1619h-431l-21 291h-151l-25 -291h-436l214 1619h609zM588 578q-32 275 -64 679q-64 -464 -80 -679h144zM521 2091q84 0 147 -60.5t63 -150.5q0 -87 -62 -148.5t-148 -61.5q-88 0 -149.5 61.5t-61.5 148.5t62 149t149 62zM519 1959q-33 0 -57.5 -24
t-24.5 -59q0 -34 24.5 -58t57.5 -24q34 0 58.5 24t24.5 58q0 35 -24.5 59t-58.5 24zM851 2392l-329 -271h-203l176 271h356z" />
    <glyph glyph-name="aringacute" unicode="&#x1fb;" horiz-adv-x="1032" 
d="M433 813h-379v89q0 154 35.5 237.5t142.5 147.5t278 64q205 0 309 -72.5t125 -178t21 -434.5v-666h-393v118q-37 -71 -95.5 -106.5t-139.5 -35.5q-106 0 -194.5 59.5t-88.5 260.5v109q0 149 47 203t233 126q199 78 213 105t14 110q0 104 -15.5 135.5t-51.5 31.5
q-41 0 -51 -26.5t-10 -137.5v-139zM561 631q-97 -71 -112.5 -119t-15.5 -138q0 -103 13.5 -133t53.5 -30q38 0 49.5 23.5t11.5 123.5v273zM506 1837q84 0 147 -60.5t63 -150.5q0 -87 -62 -148.5t-148 -61.5q-88 0 -149.5 61.5t-61.5 148.5t62 149t149 62zM504 1705
q-33 0 -57.5 -24t-24.5 -59q0 -34 24.5 -58t57.5 -24q34 0 58.5 24t24.5 58q0 35 -24.5 59t-58.5 24zM825 2154l-329 -271h-203l176 271h356z" />
    <glyph glyph-name="AEacute" unicode="&#x1fc;" horiz-adv-x="1461" 
d="M1404 1619v-324h-283v-307h266v-308h-266v-356h303v-324h-724v291h-242l-68 -291h-402l426 1619h990zM700 1316l-179 -738h179v738zM1159 1941l-329 -271h-203l176 271h356z" />
    <glyph glyph-name="aeacute" unicode="&#x1fd;" horiz-adv-x="1543" 
d="M1482 640h-527v-268q0 -102 13 -131.5t55 -29.5q45 0 61 30t16 124v189h382v-134q0 -131 -39.5 -221t-143.5 -156.5t-255 -66.5q-140 0 -238 38t-155 114q-55 -76 -130 -114t-169 -38q-110 0 -181.5 45t-94 114t-22.5 226q0 140 20.5 191.5t84.5 92t221 95.5
q83 28 112 47t40 47.5t11 122.5q0 89 -12 124t-45 35q-32 0 -41.5 -29t-9.5 -147v-127h-379v99q0 110 15.5 173t71 126.5t141 101.5t218.5 38q74 0 143 -18t132 -54q46 36 107 54t137 18q152 0 261.5 -66t154.5 -169t45 -305v-171zM1078 856v120q0 93 -17 116.5t-44 23.5
q-33 0 -47.5 -27t-14.5 -113v-120h123zM551 623q-77 -56 -103.5 -101.5t-26.5 -169.5q0 -77 15.5 -109t56.5 -32q29 0 43 20t14 59l1 119v214zM1090 1687l-329 -271h-203l176 271h356z" />
    <glyph glyph-name="Oslashacute" unicode="&#x1fe;" horiz-adv-x="1119" 
d="M1026 1339q20 -76 20 -392v-277q0 -244 -11.5 -345.5t-72 -185.5t-163.5 -129t-240 -45q-146 0 -249.5 48t-165.5 143l-107 -140l-92 70l147 192q-20 72 -20 392v277q0 244 11.5 345.5t72 185.5t163.5 129t240 45q145 0 249 -47.5t166 -143.5l107 140l92 -69zM625 986
v216q0 113 -12.5 144.5t-51.5 31.5q-41 0 -54.5 -33.5t-13.5 -142.5v-390zM493 623v-177q0 -141 11.5 -174t53.5 -33q43 0 55 38t12 181v340zM868 1941l-329 -271h-203l176 271h356z" />
    <glyph glyph-name="oslashacute" unicode="&#x1ff;" horiz-adv-x="1047" 
d="M912 1181q39 -53 56.5 -115.5t17.5 -204.5v-325q0 -179 -18 -262.5t-77 -156t-151 -107t-213 -34.5q-114 0 -198 21.5t-137 63.5l-31 -47l-79 51l45 69q-34 56 -50.5 126t-16.5 232v340q0 185 40 289t144 167t266 63q105 0 189 -25t146 -75l41 62l78 -51zM582 835v126
q0 102 -11 128.5t-47 26.5t-48 -26.5t-12 -128.5v-306zM464 481v-119q0 -94 12 -122.5t47 -28.5q36 0 47.5 26t11.5 112v313zM843 1687l-329 -271h-203l176 271h356z" />
    <glyph glyph-name="tonos" unicode="&#x384;" horiz-adv-x="682" 
d="M250 1620h274l-125 -270h-202z" />
    <glyph glyph-name="dieresistonos" unicode="&#x385;" horiz-adv-x="682" 
d="M256 2124h274l-124 -271h-203zM-6 1761h256v-260h-256v260zM428 1761h262v-260h-262v260z" />
    <glyph glyph-name="Alphatonos" unicode="&#x386;" horiz-adv-x="1040" 
d="M811 1619l241 -1619h-431l-21 291h-151l-25 -291h-436l214 1619h609zM588 578q-32 275 -64 679q-64 -464 -80 -679h144zM-110 1620h274l-125 -270h-202z" />
    <glyph glyph-name="anoteleia" unicode="&#x387;" horiz-adv-x="450" 
d="M377 972v-330h-305v330h305z" />
    <glyph glyph-name="Epsilontonos" unicode="&#x388;" horiz-adv-x="1100" 
d="M334 1619h702v-324h-281v-307h263v-308h-263v-356h309v-324h-730v1619zM37 1620h274l-125 -270h-202z" />
    <glyph glyph-name="Etatonos" unicode="&#x389;" horiz-adv-x="1386" 
d="M1302 1619v-1619h-421v680h-126v-680h-421v1619h421v-579h126v579h421zM37 1620h274l-125 -270h-202z" />
    <glyph glyph-name="Iotatonos" unicode="&#x38a;" horiz-adv-x="840" 
d="M755 1619v-1619h-421v1619h421zM37 1620h274l-125 -270h-202z" />
    <glyph glyph-name="Omicrontonos" unicode="&#x38c;" horiz-adv-x="1311" 
d="M1226 672q0 -244 -11.5 -345.5t-72 -185.5t-163.5 -129t-240 -45q-130 0 -233.5 42.5t-166.5 127.5t-75 185t-12 350v277q0 244 11.5 345.5t72 185.5t163.5 129t240 45q130 0 233.5 -42.5t166.5 -127.5t75 -185t12 -350v-277zM805 1204q0 113 -12.5 144.5t-51.5 31.5
q-33 0 -50.5 -25.5t-17.5 -150.5v-756q0 -141 11.5 -174t53.5 -33q43 0 55 38t12 181v744zM37 1620h274l-125 -270h-202z" />
    <glyph glyph-name="Upsilontonos" unicode="&#x38e;" horiz-adv-x="1311" 
d="M1321 1619l-307 -1033v-586h-390v586l-296 1033h387q91 -473 102 -637q35 259 117 637h387zM37 1620h274l-125 -270h-202z" />
    <glyph glyph-name="Omegatonos" unicode="&#x38f;" horiz-adv-x="1341" 
d="M740 246v-246h-486v244h62q46 0 158 -11q-88 58 -142.5 171.5t-54.5 263.5v383q0 210 10 280.5t66.5 150t155 115t255.5 35.5q145 0 247.5 -34.5t163 -109.5t72 -148t11.5 -289v-383q0 -150 -54.5 -263.5t-142.5 -171.5q93 11 150 11h69v-244h-485v246q41 40 41 207v766
q0 119 -14.5 148.5t-50.5 29.5q-40 0 -56 -28t-16 -150v-766q0 -167 41 -207zM37 1620h274l-125 -270h-202z" />
    <glyph glyph-name="iotadieresistonos" unicode="&#x390;" horiz-adv-x="623" 
d="M72 379v948h403v-969q0 -70 25.5 -109.5t107.5 -39.5v-209h-65q-207 0 -297 19.5t-132 98t-42 261.5zM190 2039h274l-124 -271h-203zM-72 1676h256v-260h-256v260zM362 1676h262v-260h-262v260z" />
    <glyph glyph-name="Alpha" unicode="&#x391;" horiz-adv-x="1040" 
d="M811 1619l241 -1619h-431l-21 291h-151l-25 -291h-436l214 1619h609zM588 578q-32 275 -64 679q-64 -464 -80 -679h144z" />
    <glyph glyph-name="Beta" unicode="&#x392;" horiz-adv-x="1131" 
d="M84 1619h420q199 0 301.5 -31t165.5 -125.5t63 -304.5q0 -142 -44.5 -198t-175.5 -86q146 -33 198 -109.5t52 -234.5v-150q0 -164 -37.5 -243t-119.5 -108t-336 -29h-487v1619zM505 1342v-360q27 1 42 1q62 0 79 30.5t17 174.5q0 76 -14 106.5t-36.5 38.5t-87.5 9z
M505 730v-453q89 3 113.5 28t24.5 123v151q0 104 -22 126t-116 25z" />
    <glyph glyph-name="Gamma" unicode="&#x393;" horiz-adv-x="778" 
d="M84 0v1620h676v-322h-254v-1298h-422z" />
    <glyph glyph-name="Delta" unicode="&#x394;" horiz-adv-x="1040" 
d="M203 1620h608l242 -1620h-1065zM444 289h144q0 31 -26.5 467.5t-37.5 500.5q-11 -65 -45.5 -506.5t-34.5 -461.5z" />
    <glyph glyph-name="Epsilon" unicode="&#x395;" horiz-adv-x="851" 
d="M84 1619h702v-324h-281v-307h263v-308h-263v-356h309v-324h-730v1619z" />
    <glyph glyph-name="Zeta" unicode="&#x396;" horiz-adv-x="813" 
d="M788 1619v-324l-314 -971h314v-324h-776v235l324 1060h-286v324h738z" />
    <glyph glyph-name="Eta" unicode="&#x397;" horiz-adv-x="1137" 
d="M1052 1619v-1619h-421v680h-126v-680h-421v1619h421v-579h126v579h421z" />
    <glyph glyph-name="Theta" unicode="&#x398;" horiz-adv-x="1118" 
d="M1047 664q0 -262 -16.5 -368t-80 -176.5t-161 -101t-230.5 -30.5q-124 0 -217 27t-155.5 86t-82.5 127t-26 168.5t-6 267.5v301q0 259 15.5 365.5t79 175t160.5 97.5t232 29t232 -28t160 -96.5t79.5 -176.5t16.5 -366v-301zM625 934v285q0 102 -10.5 140t-55.5 38
q-36 0 -50.5 -30t-14.5 -148v-285h131zM494 698v-336q0 -62 11.5 -96.5t51.5 -34.5q35 0 51.5 28t16.5 132v307h-131z" />
    <glyph glyph-name="Iota" unicode="&#x399;" horiz-adv-x="590" 
d="M84 0v1620h422v-1620h-422z" />
    <glyph glyph-name="Kappa" unicode="&#x39a;" horiz-adv-x="1099" 
d="M1087 1619l-241 -731l264 -888h-435l-170 694v-694h-421v1619h421v-629l187 629h395z" />
    <glyph glyph-name="Lambda" unicode="&#x39b;" horiz-adv-x="1073" 
d="M1085 0h-444q-66 566 -109 1133q-40 -567 -98 -1133h-444l213 1620h639z" />
    <glyph glyph-name="Mu" unicode="&#x39c;" horiz-adv-x="1468" 
d="M1383 1619v-1619h-368v1093l-147 -1093h-261l-155 1068v-1068h-368v1619h545q24 -146 51 -344l58 -412l96 756h549z" />
    <glyph glyph-name="Nu" unicode="&#x39d;" horiz-adv-x="1109" 
d="M1024 1619v-1619h-369l-219 736v-736h-352v1619h352l236 -729v729h352z" />
    <glyph glyph-name="Xi" unicode="&#x39e;" horiz-adv-x="944" 
d="M33 1296v324h878v-324h-878zM115 666v323h714v-323h-714zM33 0v324h878v-324h-878z" />
    <glyph glyph-name="Omicron" unicode="&#x39f;" horiz-adv-x="1119" 
d="M1046 671q0 -244 -11.5 -345.5t-72 -185.5t-163.5 -129t-240 -45q-130 0 -233.5 42.5t-166.5 127.5t-75 185t-12 350v277q0 244 11.5 345.5t72 185.5t163.5 129t240 45q130 0 233.5 -42.5t166.5 -127.5t75 -185t12 -350v-277zM625 1203q0 113 -12.5 144.5t-51.5 31.5
q-33 0 -50.5 -25.5t-17.5 -150.5v-756q0 -141 11.5 -174t53.5 -33q43 0 55 38t12 181v744z" />
    <glyph glyph-name="Pi" unicode="&#x3a0;" horiz-adv-x="1137" 
d="M631 1296h-125v-1296h-422v1620h969v-1620h-422v1296z" />
    <glyph glyph-name="Rho" unicode="&#x3a1;" horiz-adv-x="1028" 
d="M506 0h-422v1620h424q157 0 246.5 -20t149.5 -81.5t73.5 -132.5t13.5 -221v-139q0 -243 -97 -309t-276 -66h-112v-651zM639 1077v131q0 82 -25.5 107.5t-107.5 25.5v-411h31q57 0 79.5 27.5t22.5 119.5z" />
    <glyph glyph-name="Sigma" unicode="&#x3a3;" horiz-adv-x="807" 
d="M446 324h322v-324h-786l276 868l-281 752h785v-324h-311l167 -430z" />
    <glyph glyph-name="Tau" unicode="&#x3a4;" horiz-adv-x="944" 
d="M932 1619v-324h-250v-1295h-421v1295h-249v324h920z" />
    <glyph glyph-name="Upsilon" unicode="&#x3a5;" horiz-adv-x="969" 
d="M981 1619l-307 -1033v-586h-390v586l-296 1033h387q91 -473 102 -637q35 259 117 637h387z" />
    <glyph glyph-name="Phi" unicode="&#x3a6;" horiz-adv-x="1632" 
d="M1599 793q0 -159 -15 -229q-21 -97 -89 -175q-106 -121 -399 -121h-74v-268h-422v268h-65q-294 0 -400 121q-68 78 -89 175q-15 70 -15 229v28q0 159 15 229q21 97 89 175q105 118 400 118q22 0 65 3v274h422v-274q51 -3 74 -3q295 0 399 -118q68 -78 89 -175
q15 -70 15 -229v-28zM1178 702v209q0 83 -32.5 133t-80.5 50h-43v-574h43q48 0 80.5 50t32.5 132zM600 520v574h-35q-47 0 -79.5 -50t-32.5 -133v-209q0 -82 32.5 -132t79.5 -50h35zM1602 793z" />
    <glyph glyph-name="Chi" unicode="&#x3a7;" horiz-adv-x="988" 
d="M937 1619l-147 -716l222 -903h-390q-70 242 -128 589q-16 -153 -44 -325l-40 -264h-410l152 903l-152 716h407q11 -67 44 -223q26 -119 43 -218l90 441h353z" />
    <glyph glyph-name="Psi" unicode="&#x3a8;" horiz-adv-x="1608" 
d="M594 1620h422v-786q61 2 97 38.5t36 94.5v419q0 176 68 234h389q-56 -75 -56 -260v-404q0 -181 -106.5 -276.5t-292.5 -95.5h-135v-584h-422v584h-135q-186 0 -293 95.5t-107 276.5v404q0 185 -55 260h389q68 -58 68 -234v-419q0 -58 36 -94.5t97 -38.5v786z" />
    <glyph glyph-name="Omega" unicode="&#x3a9;" horiz-adv-x="1149" 
d="M547 246v-246h-486v244h62q46 0 158 -11q-88 58 -142.5 171.5t-54.5 263.5v383q0 210 10 280.5t66.5 150t155 115t255.5 35.5q145 0 247.5 -34.5t163 -109.5t72 -148t11.5 -289v-383q0 -150 -54.5 -263.5t-142.5 -171.5q93 11 150 11h69v-244h-485v246q41 40 41 207v766
q0 119 -14.5 148.5t-50.5 29.5q-40 0 -56 -28t-16 -150v-766q0 -167 41 -207z" />
    <glyph glyph-name="Iotadieresis" unicode="&#x3aa;" horiz-adv-x="590" 
d="M505 1619v-1619h-421v1619h421zM206 1930v-260h-261v260h261zM643 1930v-260h-261v260h261z" />
    <glyph glyph-name="Upsilondieresis" unicode="&#x3ab;" horiz-adv-x="969" 
d="M981 1619l-307 -1033v-586h-390v586l-296 1033h387q91 -473 102 -637q35 259 117 637h387zM398 1930v-260h-261v260h261zM835 1930v-260h-261v260h261z" />
    <glyph glyph-name="alphatonos" unicode="&#x3ac;" horiz-adv-x="1073" 
d="M59 342v647q0 114 9 171.5t48.5 106t87.5 60.5t132 12q168 0 276 -129q14 62 58 117h381q-60 -138 -60 -340v-471q0 -332 111 -516h-408q-60 71 -78 131q-47 -67 -126.5 -105t-157.5 -38q-103 0 -170.5 37t-85 107.5t-17.5 209.5zM463 1049v-715q0 -71 9.5 -102t47.5 -31
q47 0 57.5 35.5t10.5 132.5v641q0 79 -16 101t-48 22q-61 0 -61 -84zM456 1686h274l-125 -270h-202z" />
    <glyph glyph-name="epsilontonos" unicode="&#x3ad;" horiz-adv-x="1057" 
d="M1016 319q0 -181 -116 -256t-388 -75q-461 0 -461 346v82q0 106 71.5 179.5t188.5 100.5q-105 12 -177.5 84.5t-72.5 167.5v80q0 153 120 232t345 79q228 0 347.5 -76t119.5 -223v-151h-358v119q0 67 -21.5 92.5t-64.5 25.5q-50 0 -72 -29t-22 -100q0 -86 46 -134.5
t122 -53.5v-203q-76 -7 -122 -65t-46 -160q0 -103 19.5 -141.5t62.5 -38.5q60 0 76 35t16 133v106h387v-156zM456 1686h274l-125 -270h-202z" />
    <glyph glyph-name="etatonos" unicode="&#x3ae;" horiz-adv-x="1071" 
d="M426 1327q43 -53 49 -117q82 129 254 129q79 0 131.5 -18t89.5 -70t45.5 -119t8.5 -202v-1116h-404v1112q0 130 -8 163t-51 33q-47 0 -56.5 -41.5t-9.5 -177.5v-903h-403v1145q0 95 -58 182h412zM456 1686h274l-125 -270h-202z" />
    <glyph glyph-name="iotatonos" unicode="&#x3af;" horiz-adv-x="623" 
d="M72 379v948h403v-969q0 -70 25.5 -109.5t107.5 -39.5v-209h-65q-207 0 -297 19.5t-132 98t-42 261.5zM194 1686h274l-125 -270h-202z" />
    <glyph glyph-name="upsilondieresistonos" unicode="&#x3b0;" horiz-adv-x="1069" 
d="M1004 1327v-913q0 -156 -42.5 -248t-137.5 -135t-287 -43q-269 0 -367 104t-98 332v903h403v-1034q0 -90 62 -90q33 0 48 21.5t15 90.5v1012h404zM456 2039h274l-124 -271h-203zM194 1676h256v-260h-256v260zM628 1676h262v-260h-262v260z" />
    <glyph glyph-name="alpha" unicode="&#x3b1;" horiz-adv-x="1073" 
d="M59 342v647q0 114 9 171.5t48.5 106t87.5 60.5t132 12q168 0 276 -129q14 62 58 117h381q-60 -138 -60 -340v-471q0 -332 111 -516h-408q-60 71 -78 131q-47 -67 -126.5 -105t-157.5 -38q-103 0 -170.5 37t-85 107.5t-17.5 209.5zM463 1049v-715q0 -71 9.5 -102t47.5 -31
q47 0 57.5 35.5t10.5 132.5v641q0 79 -16 101t-48 22q-61 0 -61 -84z" />
    <glyph glyph-name="beta" unicode="&#x3b2;" horiz-adv-x="1077" 
d="M475 106v-292h-403v1421q0 182 120.5 283.5t337.5 101.5q222 0 343.5 -84.5t121.5 -245.5v-162q0 -95 -72.5 -168.5t-177.5 -85.5q123 -23 198 -87t75 -158v-289q0 -152 -76.5 -249t-212.5 -97q-161 0 -254 112zM475 274q0 -13 24 -38t46 -25q28 0 42.5 20t14.5 80v342
q0 59 -12.5 96.5t-75.5 47.5v176q60 3 74 46.5t14 104.5v183q0 60 -18 80t-52 20q-57 0 -57 -111v-1022z" />
    <glyph glyph-name="gamma" unicode="&#x3b3;" horiz-adv-x="1024" 
d="M1034 1327l-309 -1124v-389h-403v395l-226 749q-30 104 -52.5 131t-55.5 27v219q30 4 53 4q134 0 202.5 -27t107 -95t79.5 -221l84 -314l160 645h360z" />
    <glyph glyph-name="delta" unicode="&#x3b4;" horiz-adv-x="1044" 
d="M360 1147l-270 260v213h823v-209h-360q275 -214 353.5 -356t78.5 -350v-179q0 -181 -18.5 -269t-83 -153.5t-156.5 -90.5t-267 -25q-88 0 -145 10t-115.5 50t-90 100.5t-41 136t-9.5 196.5v187q0 105 8.5 169.5t45 129.5t100.5 111t147 69zM582 797q0 107 -14 131t-46 24
q-30 0 -44.5 -23.5t-14.5 -131.5v-482q0 -114 59 -114q26 0 43 20t17 51v525z" />
    <glyph glyph-name="epsilon" unicode="&#x3b5;" horiz-adv-x="1057" 
d="M1016 319q0 -181 -116 -256t-388 -75q-461 0 -461 346v82q0 106 71.5 179.5t188.5 100.5q-105 12 -177.5 84.5t-72.5 167.5v80q0 153 120 232t345 79q228 0 347.5 -76t119.5 -223v-151h-358v119q0 67 -21.5 92.5t-64.5 25.5q-50 0 -72 -29t-22 -100q0 -86 46 -134.5
t122 -53.5v-203q-76 -7 -122 -65t-46 -160q0 -103 19.5 -141.5t62.5 -38.5q60 0 76 35t16 133v106h387v-156z" />
    <glyph glyph-name="zeta" unicode="&#x3b6;" horiz-adv-x="786" 
d="M53 852q0 132 74.5 254t292.5 305h-359v209h703v-203q-179 -153 -243 -270t-64 -270v-250q0 -44 8.5 -70t24 -36.5t71.5 -24.5q119 -31 166 -112.5t47 -213.5q0 -180 -69 -268t-242 -88h-197v227h158q65 0 83.5 24t18.5 72t-21.5 74t-74.5 37l-208 39q-63 12 -100 44
t-53 93t-16 186v242z" />
    <glyph glyph-name="eta" unicode="&#x3b7;" horiz-adv-x="1071" 
d="M426 1327q43 -53 49 -117q82 129 254 129q79 0 131.5 -18t89.5 -70t45.5 -119t8.5 -202v-1116h-404v1112q0 130 -8 163t-51 33q-47 0 -56.5 -41.5t-9.5 -177.5v-903h-403v1145q0 95 -58 182h412z" />
    <glyph glyph-name="theta" unicode="&#x3b8;" horiz-adv-x="1047" 
d="M76 481v647q0 118 14 203.5t70.5 157.5t148.5 107.5t217 35.5q133 0 232 -35.5t158.5 -105t72 -139.5t12.5 -195v-631q0 -181 -18.5 -269t-82.5 -153.5t-156.5 -90.5t-267.5 -25q-87 0 -144.5 10t-115.5 50t-90 100.5t-41 136t-9 196.5zM598 922v335q0 97 -9 131.5
t-50 34.5t-50.5 -35.5t-9.5 -130.5v-335h119zM479 702v-387q0 -125 60 -125q24 0 41.5 25t17.5 57v430h-119z" />
    <glyph glyph-name="iota" unicode="&#x3b9;" horiz-adv-x="623" 
d="M72 379v948h403v-969q0 -70 25.5 -109.5t107.5 -39.5v-209h-65q-207 0 -297 19.5t-132 98t-42 261.5z" />
    <glyph glyph-name="kappa" unicode="&#x3ba;" horiz-adv-x="1069" 
d="M1077 0h-434l-168 530v-530h-403v1327h403v-500q120 261 149 319t74.5 107t100 64.5t131.5 15.5q57 0 127 -8v-209q-54 0 -83.5 -23t-49.5 -66l-131 -284z" />
    <glyph glyph-name="lambda" unicode="&#x3bb;" horiz-adv-x="995" 
d="M-2 0l221 1219q14 78 14 129q0 63 -83 63h-54v209h246q204 0 293 -45t120.5 -149.5t57.5 -356.5l80 -760q6 -65 18.5 -79.5t30.5 -14.5q15 0 53 2v-215q-117 -14 -231 -14q-195 0 -211 229l-55 787l-133 -1004h-367z" />
    <glyph glyph-name="mu" unicode="&#x3bc;" horiz-adv-x="1079" 
d="M72 1327h403v-1026q0 -90 62 -90q33 0 48 21.5t15 91.5v1003h404v-1327h-412l6 111q-55 -76 -123 -97v-184h-403v1497z" />
    <glyph glyph-name="nu" unicode="&#x3bd;" horiz-adv-x="895" 
d="M907 1327l-189 -1327h-527l-203 1327h361l113 -968q13 106 44 520q18 231 40 448h361z" />
    <glyph glyph-name="xi" unicode="&#x3be;" horiz-adv-x="782" 
d="M248 852q-187 85 -187 246q0 58 24 106.5t71.5 89t97 69.5t78.5 48h-275v209h711v-203q-151 -65 -241.5 -144t-90.5 -153q0 -78 57 -117.5t138 -39.5v-199q-178 -32 -178 -156q0 -35 8.5 -57t24.5 -31.5t71 -23.5q119 -31 166 -112.5t47 -213.5q0 -180 -69 -268t-242 -88
h-197v227h158q62 0 82 21.5t20 76.5q0 50 -22.5 74.5t-71.5 33.5l-215 42q-164 30 -164 280q0 113 46.5 179.5t152.5 103.5z" />
    <glyph glyph-name="omicron" unicode="&#x3bf;" horiz-adv-x="1047" 
d="M986 861v-325q0 -179 -18 -262.5t-77 -156t-151.5 -107t-212.5 -34.5q-134 0 -227 29.5t-144.5 89t-73.5 144t-22 253.5v340q0 185 40 289t144 167t266 63q136 0 233.5 -40.5t150.5 -105.5t72.5 -134t19.5 -210zM582 961q0 102 -11 128.5t-47 26.5t-48 -26.5t-12 -128.5
v-599q0 -94 12 -122.5t47 -28.5q36 0 47.5 26t11.5 112v612z" />
    <glyph glyph-name="pi" unicode="&#x3c0;" horiz-adv-x="1114" 
d="M1108 1327v-229h-84v-1098h-403v1098h-125v-1098h-404v1098h-86v229h1102z" />
    <glyph glyph-name="rho" unicode="&#x3c1;" horiz-adv-x="1059" 
d="M475 8v-198h-403v1026q0 117 14 202.5t70.5 157.5t148.5 107.5t217 35.5q133 0 232 -35.5t158.5 -105t72 -139.5t12.5 -195v-405q0 -240 -67.5 -349.5t-245.5 -109.5q-95 0 -209 8zM475 965v-750q33 -2 60 -2q25 0 42 20.5t17 51.5v680q0 92 -9 123.5t-50 31.5
q-42 0 -51 -32.5t-9 -122.5z" />
    <glyph glyph-name="sigma1" unicode="&#x3c2;" horiz-adv-x="793" 
d="M457 627q0 -44 8.5 -70t24 -36.5t71.5 -24.5q119 -31 166 -112.5t47 -213.5q0 -180 -69 -268t-242 -88h-197v227h158q64 0 83 19.5t19 82.5q0 50 -18.5 71.5t-77.5 33.5l-217 44q-55 11 -91.5 44.5t-52.5 96t-16 177.5v275q0 216 97 335t270 119q101 0 307 -14v-205
q-84 6 -137 6q-68 0 -100.5 -47.5t-32.5 -165.5v-286z" />
    <glyph glyph-name="sigma" unicode="&#x3c3;" horiz-adv-x="1065" 
d="M1073 1327v-227h-117q29 -59 29 -262v-312q0 -181 -18.5 -269t-83 -153.5t-156.5 -90.5t-267 -25q-88 0 -145 10t-115.5 50t-90 100.5t-41 136t-9.5 196.5v342q0 120 15 204.5t73 156.5t150 107.5t213 35.5h563zM582 272v666q0 93 -9 124.5t-51 31.5q-41 0 -50 -32.5
t-9 -123.5v-623q0 -114 59 -114q26 0 43 20t17 51z" />
    <glyph glyph-name="tau" unicode="&#x3c4;" horiz-adv-x="752" 
d="M745 1327v-229h-167v-740q0 -70 25.5 -109.5t107.5 -39.5v-209h-66q-206 0 -296.5 19.5t-132.5 98t-42 261.5v719h-168v229h739z" />
    <glyph glyph-name="upsilon" unicode="&#x3c5;" horiz-adv-x="1069" 
d="M1004 1327v-913q0 -156 -42.5 -248t-137.5 -135t-287 -43q-269 0 -367 104t-98 332v903h403v-1034q0 -90 62 -90q33 0 48 21.5t15 90.5v1012h404z" />
    <glyph glyph-name="phi" unicode="&#x3c6;" horiz-adv-x="1573" 
d="M61 936q0 197 133 298t371 101v-213q-39 0 -69.5 -42.5t-30.5 -110.5v-666q0 -90 82 -90h41v623q0 117 14 202.5t70.5 157.5t148.5 107.5t217 35.5q133 0 232 -35.5t158.5 -105t72 -139.5t12.5 -195v-405q0 -115 -33 -224.5t-146 -172t-269 -62.5h-74v-190h-403v190h-76
q-157 0 -268.5 61t-147 172t-35.5 218v485zM1110 303v662q0 105 -15 130t-44 25q-30 0 -45 -28t-15 -127v-752h39q37 0 58.5 26t21.5 64z" />
    <glyph glyph-name="chi" unicode="&#x3c7;" horiz-adv-x="1018" 
d="M147 995q-17 71 -33 97t-61 26q-11 0 -33 -2v205q93 14 207 14q100 0 148.5 -54t67.5 -161l57 -319l112 526h359l-201 -737l79 -315q42 -167 47.5 -184t18 -35.5t27 -26.5t62.5 -11v-200q-118 -15 -232 -15q-85 0 -134.5 55t-70.5 167l-75 389l-127 -604h-345l222 800z
" />
    <glyph glyph-name="psi" unicode="&#x3c8;" horiz-adv-x="1516" 
d="M479 252q-207 0 -316.5 111t-109.5 348v354q0 185 -55 262h369q67 -60 67 -235v-508q0 -50 29 -84.5t72 -34.5h22v1155h401v-1155h23q42 0 71 35t29 84v508q0 175 68 235h369q-56 -77 -56 -262v-354q0 -112 -32 -221t-135.5 -173.5t-258.5 -64.5h-78v-442h-401v442h-78z
" />
    <glyph glyph-name="omega" unicode="&#x3c9;" horiz-adv-x="1604" 
d="M1128 954q0 142 -133 154l-45 4v217q50 4 78 4q224 0 340 -62q164 -89 164 -310v-508q0 -188 -33 -267q-49 -117 -163 -163q-88 -35 -242 -35q-98 0 -182 50.5t-111 129.5q-21 -78 -108.5 -128t-192.5 -50q-310 -2 -400 213q-28 68 -28 248v507q0 222 163 310
q117 63 340 63q29 0 78 -4v-217l-45 -4q-133 -12 -133 -154v-651q0 -98 62 -98q63 0 63 67v670h404v-672q0 -27 21 -46t48 -19q55 0 55 100v649v2z" />
    <glyph glyph-name="iotadieresis" unicode="&#x3ca;" horiz-adv-x="623" 
d="M72 379v948h403v-969q0 -70 25.5 -109.5t107.5 -39.5v-209h-65q-207 0 -297 19.5t-132 98t-42 261.5zM222 1676v-260h-261v260h261zM659 1676v-260h-261v260h261z" />
    <glyph glyph-name="upsilondieresis" unicode="&#x3cb;" horiz-adv-x="1069" 
d="M1004 1327v-913q0 -156 -42.5 -248t-137.5 -135t-287 -43q-269 0 -367 104t-98 332v903h403v-1034q0 -90 62 -90q33 0 48 21.5t15 90.5v1012h404zM445 1676v-260h-261v260h261zM882 1676v-260h-261v260h261z" />
    <glyph glyph-name="omicrontonos" unicode="&#x3cc;" horiz-adv-x="1047" 
d="M986 861v-325q0 -179 -18 -262.5t-77 -156t-151.5 -107t-212.5 -34.5q-134 0 -227 29.5t-144.5 89t-73.5 144t-22 253.5v340q0 185 40 289t144 167t266 63q136 0 233.5 -40.5t150.5 -105.5t72.5 -134t19.5 -210zM582 961q0 102 -11 128.5t-47 26.5t-48 -26.5t-12 -128.5
v-599q0 -94 12 -122.5t47 -28.5q36 0 47.5 26t11.5 112v612zM438 1686h274l-125 -270h-202z" />
    <glyph glyph-name="upsilontonos" unicode="&#x3cd;" horiz-adv-x="1069" 
d="M1004 1327v-913q0 -156 -42.5 -248t-137.5 -135t-287 -43q-269 0 -367 104t-98 332v903h403v-1034q0 -90 62 -90q33 0 48 21.5t15 90.5v1012h404zM456 1686h274l-125 -270h-202z" />
    <glyph glyph-name="omegatonos" unicode="&#x3ce;" horiz-adv-x="1604" 
d="M1128 954q0 142 -133 154l-45 4v217q50 4 78 4q224 0 340 -62q164 -89 164 -310v-508q0 -188 -33 -267q-49 -117 -163 -163q-88 -35 -242 -35q-98 0 -182 50.5t-111 129.5q-21 -78 -108.5 -128t-192.5 -50q-310 -2 -400 213q-28 68 -28 248v507q0 222 163 310
q117 63 340 63q29 0 78 -4v-217l-45 -4q-133 -12 -133 -154v-651q0 -98 62 -98q63 0 63 67v670h404v-672q0 -27 21 -46t48 -19q55 0 55 100v649v2zM721 1686h274l-125 -270h-202z" />
    <glyph glyph-name="afii10023" unicode="&#x401;" horiz-adv-x="851" 
d="M84 1619h702v-324h-281v-307h263v-308h-263v-356h309v-324h-730v1619zM370 1930v-260h-261v260h261zM807 1930v-260h-261v260h261z" />
    <glyph glyph-name="afii10051" unicode="&#x402;" horiz-adv-x="1354" 
d="M1270 360q0 -222 -74 -291t-297 -69h-141v279q53 0 71.5 31.5t18.5 95.5v292q0 134 -16 165.5t-56 31.5q-94 0 -94 -162v-733h-422v1337h-250v283h920v-283h-248v-348q42 63 127 96t186 33q80 0 148 -38t97.5 -107.5t29.5 -200.5v-412z" />
    <glyph glyph-name="afii10052" unicode="&#x403;" horiz-adv-x="844" 
d="M815 1296h-309v-1296h-422v1620h731v-324zM788 1941l-329 -271h-203l176 271h356z" />
    <glyph glyph-name="afii10053" unicode="&#x404;" horiz-adv-x="1135" 
d="M1055 457q0 -245 -122 -357t-386 -112q-238 0 -350.5 108t-112.5 344v793q0 399 473 399q281 0 389.5 -91t108.5 -302v-137h-404v186q0 96 -73 96q-36 0 -54 -26t-18 -113v-280h242v-236h-242v-268q0 -133 11.5 -178t64.5 -45q69 0 69 98v248h404v-127z" />
    <glyph glyph-name="afii10054" unicode="&#x405;" horiz-adv-x="1059" 
d="M976 1129h-391v120q0 84 -15 107t-50 23q-38 0 -57.5 -31t-19.5 -94q0 -81 22 -122q21 -41 119 -99q281 -167 354 -274t73 -345q0 -173 -40.5 -255t-156.5 -137.5t-270 -55.5q-169 0 -288.5 64t-156.5 163t-37 281v106h391v-197q0 -91 16.5 -117t58.5 -26t62.5 33
t20.5 98q0 143 -39 187q-40 44 -197 147q-157 104 -208 151t-84.5 130t-33.5 212q0 186 47.5 272t153.5 134.5t256 48.5q164 0 279.5 -53t153 -133.5t37.5 -273.5v-64z" />
    <glyph glyph-name="afii10055" unicode="&#x406;" horiz-adv-x="590" 
d="M505 1619v-1619h-421v1619h421z" />
    <glyph glyph-name="afii10056" unicode="&#x407;" horiz-adv-x="590" 
d="M505 1619v-1619h-421v1619h421zM204 1930v-260h-261v260h261zM641 1930v-260h-261v260h261z" />
    <glyph glyph-name="afii10057" unicode="&#x408;" horiz-adv-x="678" 
d="M599 1619v-1082q0 -243 -5 -312.5t-45.5 -125.5t-110 -77.5t-209.5 -21.5h-211v283q38 -3 55 -3q45 0 71 22t30 54t4 124v1139h421z" />
    <glyph glyph-name="afii10058" unicode="&#x409;" horiz-adv-x="1720" 
d="M1671 379q0 -181 -47 -260t-142.5 -99t-303.5 -20h-488v1296h-123v-917q0 -181 -46.5 -260t-141.5 -99t-303 -20h-66v279q77 0 106 19t29 130v1192h967v-555h66q194 0 294 -23t149.5 -101.5t49.5 -246.5v-315zM1249 428v234q0 102 -20.5 124t-116.5 25v-532
q80 0 108.5 20.5t28.5 128.5z" />
    <glyph glyph-name="afii10059" unicode="&#x40a;" horiz-adv-x="1663" 
d="M1610 379q0 -181 -47 -260t-142.5 -99t-304.5 -20h-487v680h-123v-680h-422v1620h422v-580h123v580h422v-555h65q195 0 294.5 -23t149.5 -101.5t50 -246.5v-315zM1188 428v234q0 102 -20.5 124t-116.5 25v-532q80 0 108.5 20.5t28.5 128.5z" />
    <glyph glyph-name="afii10060" unicode="&#x40b;" horiz-adv-x="1354" 
d="M682 983q43 65 129.5 100t183.5 35q117 0 180 -46t79 -123t16 -240v-709h-422v698q0 134 -16 165.5t-56 31.5q-94 0 -94 -162v-733h-422v1337h-250v283h920v-283h-248v-354z" />
    <glyph glyph-name="afii10061" unicode="&#x40c;" horiz-adv-x="1098" 
d="M84 1620h422l2 -684q119 3 123 132l8 316q4 175 68 236h389q-57 -59 -56 -244l2 -278q2 -252 -284 -287q286 -35 284 -291l-2 -258q-1 -184 56 -262h-389q-68 61 -68 236v316q0 60 -36.5 96.5t-94.5 37.5l-2 -686h-422v1620zM502 1789h274l-125 -270h-202z" />
    <glyph glyph-name="afii10062" unicode="&#x40e;" horiz-adv-x="918" 
d="M918 1620l-115 -1073q-27 -254 -58 -356.5t-120 -146.5t-293 -44h-246v209h25q83 0 102.5 13.5t19.5 41.5q0 2 -24 137l-221 1219h366l133 -1008l64 1008h367zM581 1972h170q-6 -136 -79.5 -219t-204.5 -83q-132 0 -204.5 83.5t-78.5 218.5h170q12 -137 113 -137
q102 0 114 137z" />
    <glyph glyph-name="afii10145" unicode="&#x40f;" horiz-adv-x="1137" 
d="M1053 0h-336v-279h-291v279h-342v1620h422v-1296h125v1296h422v-1620z" />
    <glyph glyph-name="afii10017" unicode="&#x410;" horiz-adv-x="1040" 
d="M811 1619l241 -1619h-431l-21 291h-151l-25 -291h-436l214 1619h609zM588 578q-32 275 -64 679q-64 -464 -80 -679h144z" />
    <glyph glyph-name="afii10018" unicode="&#x411;" horiz-adv-x="1130" 
d="M1065 379q0 -181 -47 -260t-142.5 -99t-304.5 -20h-487v1620h825v-281h-403v-274h65q195 0 295 -23t149.5 -101.5t49.5 -246.5v-315zM643 428v234q0 102 -20.5 124t-116.5 25v-532q80 0 108.5 20.5t28.5 128.5z" />
    <glyph glyph-name="afii10019" unicode="&#x412;" horiz-adv-x="1131" 
d="M84 1619h420q199 0 301.5 -31t165.5 -125.5t63 -304.5q0 -142 -44.5 -198t-175.5 -86q146 -33 198 -109.5t52 -234.5v-150q0 -164 -37.5 -243t-119.5 -108t-336 -29h-487v1619zM505 1342v-360q27 1 42 1q62 0 79 30.5t17 174.5q0 76 -14 106.5t-36.5 38.5t-87.5 9z
M505 730v-453q89 3 113.5 28t24.5 123v151q0 104 -22 126t-116 25z" />
    <glyph glyph-name="afii10020" unicode="&#x413;" horiz-adv-x="844" 
d="M815 1296h-309v-1296h-422v1620h731v-324z" />
    <glyph glyph-name="afii10021" unicode="&#x414;" horiz-adv-x="1335" 
d="M1288 -279h-291v279h-680v-279h-290v617h86q68 199 111.5 523.5t43.5 709.5v49h934v-1280h86v-619zM780 340v960h-125v-12q0 -465 -100 -948h225z" />
    <glyph glyph-name="afii10022" unicode="&#x415;" horiz-adv-x="851" 
d="M84 1619h702v-324h-281v-307h263v-308h-263v-356h309v-324h-730v1619z" />
    <glyph glyph-name="afii10024" unicode="&#x416;" horiz-adv-x="1516" 
d="M549 696q-133 -3 -133 -114v-426q0 -85 -18.5 -120.5t-26.5 -35.5h-348q45 65 45 193v364q0 116 64.5 177t221.5 87v2q-284 15 -284 264v343q0 127 -45 190h348q15 -6 30 -43.5t15 -110.5v-403q0 -111 131 -115v672h422v-672q133 4 133 115v403q0 84 18 119t27 35h348
q-45 -63 -45 -190v-343q0 -249 -285 -264v-2q157 -26 222 -87t65 -177v-364q0 -128 45 -193h-348q-16 7 -30.5 45t-14.5 111v426q0 111 -135 114v-696h-422v696z" />
    <glyph glyph-name="afii10025" unicode="&#x417;" horiz-adv-x="1086" 
d="M831 917q92 -31 137 -101.5t45 -330.5q0 -193 -44 -299.5t-152 -162t-277 -55.5q-192 0 -301.5 64.5t-144 158t-34.5 324.5v128h404v-263q0 -105 12.5 -133.5t55.5 -28.5q47 0 62 36t15 188v112q0 93 -21 136t-62 56.5t-159 15.5v235q144 0 178 11t49 48t15 116v90
q0 85 -17.5 112t-54.5 27q-42 0 -57.5 -28.5t-15.5 -121.5v-133h-404v138q0 232 106 313.5t337 81.5q289 0 392 -113t103 -314q0 -136 -37 -196.5t-130 -110.5z" />
    <glyph glyph-name="afii10026" unicode="&#x418;" horiz-adv-x="1108" 
d="M1024 0h-352v737l-219 -737h-369v1620h352v-731l236 731h352v-1620z" />
    <glyph glyph-name="afii10027" unicode="&#x419;" horiz-adv-x="1108" 
d="M1024 0h-352v737l-219 -737h-369v1620h352v-731l236 731h352v-1620zM665 1972h170q-6 -136 -79.5 -219t-204.5 -83q-132 0 -204.5 83.5t-78.5 218.5h170q12 -137 113 -137q102 0 114 137z" />
    <glyph glyph-name="afii10028" unicode="&#x41a;" horiz-adv-x="1098" 
d="M84 1620h422l2 -684q119 3 123 132l8 316q4 175 68 236h389q-57 -59 -56 -244l2 -278q2 -252 -284 -287q286 -35 284 -291l-2 -258q-1 -184 56 -262h-389q-68 61 -68 236v316q0 60 -36.5 96.5t-94.5 37.5l-2 -686h-422v1620z" />
    <glyph glyph-name="afii10029" unicode="&#x41b;" horiz-adv-x="1196" 
d="M1112 0h-422v1296h-123v-917q0 -181 -46.5 -260t-141.5 -99t-303 -20h-66v279q77 0 106 19t29 130v1192h967v-1620z" />
    <glyph glyph-name="afii10030" unicode="&#x41c;" horiz-adv-x="1468" 
d="M1383 1619v-1619h-368v1093l-147 -1093h-261l-155 1068v-1068h-368v1619h545q24 -146 51 -344l58 -412l96 756h549z" />
    <glyph glyph-name="afii10031" unicode="&#x41d;" horiz-adv-x="1137" 
d="M1052 1619v-1619h-421v680h-126v-680h-421v1619h421v-579h126v579h421z" />
    <glyph glyph-name="afii10032" unicode="&#x41e;" horiz-adv-x="1119" 
d="M1046 671q0 -244 -11.5 -345.5t-72 -185.5t-163.5 -129t-240 -45q-130 0 -233.5 42.5t-166.5 127.5t-75 185t-12 350v277q0 244 11.5 345.5t72 185.5t163.5 129t240 45q130 0 233.5 -42.5t166.5 -127.5t75 -185t12 -350v-277zM625 1203q0 113 -12.5 144.5t-51.5 31.5
q-33 0 -50.5 -25.5t-17.5 -150.5v-756q0 -141 11.5 -174t53.5 -33q43 0 55 38t12 181v744z" />
    <glyph glyph-name="afii10033" unicode="&#x41f;" horiz-adv-x="1137" 
d="M1053 0h-422v1296h-125v-1296h-422v1620h969v-1620z" />
    <glyph glyph-name="afii10034" unicode="&#x420;" horiz-adv-x="1028" 
d="M84 1619h424q172 0 264.5 -27t139 -78t63 -123.5t16.5 -224.5v-141q0 -155 -32 -226t-117.5 -109t-223.5 -38h-113v-652h-421v1619zM505 1342v-412q18 -1 31 -1q58 0 80.5 28.5t22.5 118.5v133q0 83 -26 108t-108 25z" />
    <glyph glyph-name="afii10035" unicode="&#x421;" horiz-adv-x="1134" 
d="M1067 913h-421v282q0 123 -13.5 153.5t-59.5 30.5q-52 0 -66 -37t-14 -160v-752q0 -118 14 -154t63 -36q47 0 61.5 36t14.5 169v203h421v-63q0 -251 -35.5 -356t-157 -184t-299.5 -79q-185 0 -305 67t-159 185.5t-39 356.5v473q0 175 12 262.5t71.5 168.5t165 127.5
t242.5 46.5q186 0 307 -72t159 -179.5t38 -334.5v-154z" />
    <glyph glyph-name="afii10036" unicode="&#x422;" horiz-adv-x="944" 
d="M932 1619v-324h-250v-1295h-421v1295h-249v324h920z" />
    <glyph glyph-name="afii10037" unicode="&#x423;" horiz-adv-x="918" 
d="M918 1620l-115 -1073q-27 -254 -58 -356.5t-120 -146.5t-293 -44h-246v209h25q83 0 102.5 13.5t19.5 41.5q0 2 -24 137l-221 1219h366l133 -1008l64 1008h367z" />
    <glyph glyph-name="afii10038" unicode="&#x424;" horiz-adv-x="1632" 
d="M1599 793q0 -159 -15 -229q-21 -97 -89 -175q-106 -121 -399 -121h-74v-268h-422v268h-65q-294 0 -400 121q-68 78 -89 175q-15 70 -15 229v28q0 159 15 229q21 97 89 175q105 118 400 118q22 0 65 3v274h422v-274q51 -3 74 -3q295 0 399 -118q68 -78 89 -175
q15 -70 15 -229v-28zM1178 702v209q0 83 -32.5 133t-80.5 50h-43v-574h43q48 0 80.5 50t32.5 132zM600 520v574h-35q-47 0 -79.5 -50t-32.5 -133v-209q0 -82 32.5 -132t79.5 -50h35zM1602 793z" />
    <glyph glyph-name="afii10039" unicode="&#x425;" horiz-adv-x="988" 
d="M937 1619l-147 -716l222 -903h-390q-70 242 -128 589q-16 -153 -44 -325l-40 -264h-410l152 903l-152 716h407q11 -67 44 -223q26 -119 43 -218l90 441h353z" />
    <glyph glyph-name="afii10040" unicode="&#x426;" horiz-adv-x="1167" 
d="M1139 -279h-291v279h-764v1620h422v-1296h125v1296h422v-1296h86v-603z" />
    <glyph glyph-name="afii10041" unicode="&#x427;" horiz-adv-x="1165" 
d="M659 621q-51 -54 -133 -86.5t-166 -32.5q-151 0 -219.5 84t-68.5 260v774h422v-729q0 -95 16.5 -130.5t54.5 -35.5q94 0 94 162v733h422v-1620h-422v621z" />
    <glyph glyph-name="afii10042" unicode="&#x428;" horiz-adv-x="1686" 
d="M1602 0h-1518v1620h422v-1296h125v1296h422v-1296h125v1296h424v-1620z" />
    <glyph glyph-name="afii10043" unicode="&#x429;" horiz-adv-x="1720" 
d="M1681 -279h-290v279h-1307v1620h422v-1296h121v1296h422v-1296h125v1296h421v-1296h86v-603z" />
    <glyph glyph-name="afii10044" unicode="&#x42a;" horiz-adv-x="1272" 
d="M1208 379q0 -181 -47 -260t-142.5 -99t-303.5 -20h-488v1366h-202v254h624v-555h66q195 0 294.5 -23t149 -101.5t49.5 -246.5v-315zM786 428v234q0 102 -20.5 124t-116.5 25v-532q80 0 108.5 20.5t28.5 128.5z" />
    <glyph glyph-name="afii10045" unicode="&#x42b;" horiz-adv-x="1700" 
d="M1065 379q0 -181 -47 -260t-142.5 -99t-304.5 -20h-487v1620h422v-555h65q195 0 295 -23t149.5 -101.5t49.5 -246.5v-315zM643 428v234q0 102 -20.5 124t-116.5 25v-532q80 0 108.5 20.5t28.5 128.5zM1630 0h-422v1620h422v-1620z" />
    <glyph glyph-name="afii10046" unicode="&#x42c;" horiz-adv-x="1130" 
d="M1065 379q0 -181 -47 -260t-142.5 -99t-304.5 -20h-487v1620h422v-555h65q195 0 295 -23t149.5 -101.5t49.5 -246.5v-315zM643 428v234q0 102 -20.5 124t-116.5 25v-532q80 0 108.5 20.5t28.5 128.5z" />
    <glyph glyph-name="afii10047" unicode="&#x42d;" horiz-adv-x="1085" 
d="M1004 440q0 -234 -115 -343t-354 -109q-254 0 -365 106t-111 363v127h404v-248q0 -98 69 -98q50 0 59 38t9 185v268h-233v236h233v276q0 78 -10 108.5t-53 30.5q-74 0 -74 -96v-186h-404v137q0 227 104 311t361 84q237 0 358.5 -102t121.5 -299v-789z" />
    <glyph glyph-name="afii10048" unicode="&#x42e;" horiz-adv-x="1667" 
d="M621 680h-115v-680h-422v1620h422v-580h115q2 211 21.5 304.5t83.5 156t158.5 89t223.5 26.5q135 0 231.5 -28.5t159.5 -96.5t79.5 -176t16.5 -367v-276q0 -262 -16 -368t-79.5 -176t-161 -101t-230.5 -31q-124 0 -217 27t-155.5 86t-82.5 127t-26 168.5t-6 267.5v8z
M1174 399v803q0 102 -10.5 140t-55.5 38q-36 0 -51 -29.5t-15 -148.5v-831q0 -63 12 -97t52 -34q35 0 51.5 27.5t16.5 131.5z" />
    <glyph glyph-name="afii10049" unicode="&#x42f;" horiz-adv-x="1102" 
d="M1022 0h-422v729q-80 0 -103.5 -26.5t-23.5 -116.5v-586h-391v483q0 123 13.5 187t62.5 106t155 70q-145 13 -188 82.5t-43 249.5q0 162 40 253.5t116 131.5t175 48.5t310 8.5h299v-1620zM600 983v358h-20q-53 0 -80 -23.5t-27 -100.5v-89q0 -90 22.5 -117.5t104.5 -27.5
z" />
    <glyph glyph-name="afii10065" unicode="&#x430;" horiz-adv-x="1032" 
d="M433 813h-379v89q0 154 35.5 237.5t142.5 147.5t278 64q205 0 309 -72.5t125 -178t21 -434.5v-666h-393v118q-37 -71 -95.5 -106.5t-139.5 -35.5q-106 0 -194.5 59.5t-88.5 260.5v109q0 149 47 203t233 126q199 78 213 105t14 110q0 104 -15.5 135.5t-51.5 31.5
q-41 0 -51 -26.5t-10 -137.5v-139zM561 631q-97 -71 -112.5 -119t-15.5 -138q0 -103 13.5 -133t53.5 -30q38 0 49.5 23.5t11.5 123.5v273z" />
    <glyph glyph-name="afii10066" unicode="&#x431;" horiz-adv-x="1069" 
d="M594 272v678q0 89 -5 110q-11 46 -54 46q-44 0 -55 -47q-5 -22 -5 -109v-635q0 -114 60 -114q59 0 59 71zM690 1327q288 0 301 -233q6 -111 6 -244v-324q0 -225 -30 -307q-88 -231 -435 -231q-130 0 -170 4q-84 11 -143 51q-94 65 -125 177q-22 82 -22 261v779
q0 165 110 268.5t287 103.5q74 0 212 -10t181 -10q53 0 90 12v-209q-49 -14 -78 -14q-54 0 -153.5 8t-142.5 8q-82 0 -101 -78q-6 -23 -6 -129q96 117 219 117z" />
    <glyph glyph-name="afii10067" unicode="&#x432;" horiz-adv-x="1053" 
d="M1008 350q0 -203 -88.5 -276.5t-384.5 -73.5h-463v1327h477q245 0 337.5 -81t92.5 -277q0 -225 -234 -256q122 -20 192.5 -95.5t70.5 -189.5v-78zM473 834q92 0 112.5 23t20.5 91q0 57 -23 79t-110 22v-215zM606 412v45q0 86 -23 107.5t-110 21.5v-307q81 0 107 23.5
t26 109.5z" />
    <glyph glyph-name="afii10068" unicode="&#x433;" horiz-adv-x="707" 
d="M72 0v1327h635v-229h-232v-1098h-403z" />
    <glyph glyph-name="afii10069" unicode="&#x434;" horiz-adv-x="1276" 
d="M1247 -256h-270v256h-680v-256h-270v573h86q77 119 126.5 369.5t49.5 591.5v49h872v-1008h86v-575zM760 319v709h-105v-14q0 -370 -120 -695h225z" />
    <glyph glyph-name="afii10070" unicode="&#x435;" horiz-adv-x="1047" 
d="M987 640h-523v-287q0 -90 13 -116t50 -26q46 0 61.5 34.5t15.5 133.5v175h383v-98q0 -123 -15.5 -189t-72.5 -141t-144.5 -112.5t-219.5 -37.5q-128 0 -226 37t-152.5 101.5t-75.5 142t-21 225.5v387q0 174 47 274.5t154 154t246 53.5q170 0 280.5 -64.5t155 -171
t44.5 -299.5v-176zM582 856v97q0 103 -11 133t-45 30q-42 0 -52 -25.5t-10 -137.5v-97h118z" />
    <glyph glyph-name="afii10072" unicode="&#x436;" horiz-adv-x="1530" 
d="M1518 0h-390q-45 61 -45 156v280q0 135 -129 135v-571h-399v571q-109 0 -109 -135v-280q0 -136 -45 -156h-389q45 65 45 193v233q0 165 207 231q58 19 131 33q-35 2 -135 35q-101 47 -132 74q-69 59 -69 157v179q0 127 -45 192h389q46 -61 46 -156v-225q0 -135 106 -135
v516h399v-516q127 0 127 135v225q0 136 45 156h390q-46 -65 -46 -192v-179q0 -98 -68 -157q-31 -27 -132 -74q-61 -28 -135 -35q34 -6 131 -33q207 -66 207 -231v-233q0 -128 45 -193z" />
    <glyph glyph-name="afii10073" unicode="&#x437;" horiz-adv-x="1034" 
d="M788 711q95 -30 140 -88t45 -181q0 -136 -20 -197.5t-77.5 -125t-157.5 -91.5t-222 -28q-243 0 -340 95t-97 345v97h383v-187q0 -100 70 -100q37 0 56.5 28.5t19.5 149.5v84q0 58 -39 80t-162 22v189h31q85 0 111 4t42.5 28.5t16.5 82.5v28q0 85 -18.5 108t-53.5 23
q-74 0 -74 -88v-108h-383v59q0 210 102.5 298.5t342.5 88.5q230 0 341 -85t111 -263q0 -120 -36 -178.5t-132 -89.5z" />
    <glyph glyph-name="afii10074" unicode="&#x438;" horiz-adv-x="1145" 
d="M1073 0h-352v717l-281 -717h-368v1327h352v-711l276 711h373v-1327z" />
    <glyph glyph-name="afii10075" unicode="&#x439;" horiz-adv-x="1145" 
d="M1073 0h-352v717l-281 -717h-368v1327h352v-711l276 711h373v-1327zM684 1718h170q-6 -136 -79.5 -219t-204.5 -83q-132 0 -204.5 83.5t-78.5 218.5h170q12 -137 113 -137q102 0 114 137z" />
    <glyph glyph-name="afii10076" unicode="&#x43a;" horiz-adv-x="1047" 
d="M471 1327v-516q127 0 127 135v225q0 136 45 156h389q-45 -65 -45 -192v-185q0 -97 -79 -161q-29 -24 -122 -68q-60 -29 -135 -31q35 -6 131 -33q207 -66 207 -231v-233q0 -128 45 -193h-389q-45 61 -45 156v280q0 135 -129 135v-571h-399v1327h399z" />
    <glyph glyph-name="afii10077" unicode="&#x43b;" horiz-adv-x="1149" 
d="M686 0v1049h-143v-670q0 -183 -42 -261.5t-132.5 -98t-296.5 -19.5h-66v217q77 1 106 19.5t29 130.5v960h946v-1327h-401z" />
    <glyph glyph-name="afii10078" unicode="&#x43c;" horiz-adv-x="1399" 
d="M1327 0h-346v915l-168 -915h-221l-174 915v-915h-346v1327h501l129 -733l117 733h508v-1327z" />
    <glyph glyph-name="afii10079" unicode="&#x43d;" horiz-adv-x="1092" 
d="M1020 0h-402v489h-145v-489h-401v1327h401v-477h145v477h402v-1327z" />
    <glyph glyph-name="afii10080" unicode="&#x43e;" horiz-adv-x="1047" 
d="M986 861v-325q0 -179 -18 -262.5t-77 -156t-151.5 -107t-212.5 -34.5q-134 0 -227 29.5t-144.5 89t-73.5 144t-22 253.5v340q0 185 40 289t144 167t266 63q136 0 233.5 -40.5t150.5 -105.5t72.5 -134t19.5 -210zM582 961q0 102 -11 128.5t-47 26.5t-48 -26.5t-12 -128.5
v-599q0 -94 12 -122.5t47 -28.5q36 0 47.5 26t11.5 112v612z" />
    <glyph glyph-name="afii10081" unicode="&#x43f;" horiz-adv-x="1090" 
d="M72 0v1327h946v-1327h-402v1049h-143v-1049h-401z" />
    <glyph glyph-name="afii10082" unicode="&#x440;" horiz-adv-x="1063" 
d="M483 1327l-7 -117q54 71 119 106t142 35q94 0 162.5 -50.5t85.5 -116.5t17 -224v-559q0 -181 -21.5 -257.5t-88 -122t-160.5 -45.5q-75 0 -139 35t-117 104v-304h-404v1516h411zM598 941q0 123 -9 149t-50 26q-40 0 -51.5 -30t-11.5 -145v-550q0 -120 12 -150t52 -30
q39 0 48.5 27.5t9.5 133.5v569z" />
    <glyph glyph-name="afii10083" unicode="&#x441;" horiz-adv-x="1013" 
d="M965 826h-381v153q0 80 -13 108.5t-48 28.5t-47 -25t-12 -112v-626q0 -71 18 -106.5t53 -35.5q41 0 55.5 37t14.5 140v158h360q-1 -159 -11.5 -238.5t-67 -163t-147.5 -126t-225 -42.5q-171 0 -271 58.5t-141.5 164t-41.5 299.5v377q0 169 34 255t145 153.5t270 67.5
q158 0 270 -67t149 -169t37 -289z" />
    <glyph glyph-name="afii10084" unicode="&#x442;" horiz-adv-x="881" 
d="M872 1327v-278h-231v-1049h-403v1049h-232v278h866z" />
    <glyph glyph-name="afii10085" unicode="&#x443;" horiz-adv-x="918" 
d="M918 1327l-116 -960q-27 -228 -45.5 -311t-61.5 -137t-119.5 -79.5t-244.5 -25.5h-245v212q94 0 121 9.5t27 42.5q0 16 -25 139l-221 1110h367l132 -895l64 895h367z" />
    <glyph glyph-name="afii10086" unicode="&#x444;" horiz-adv-x="1575" 
d="M1513 401q0 -139 -16.5 -222.5t-76.5 -134t-183 -50.5q-160 0 -250 121v-305h-401v303q-97 -121 -262 -121q-108 0 -171 42t-78.5 115.5t-15.5 212.5v560q0 139 17 222.5t77 134t183 50.5q160 0 250 -121v326h401v-324q97 121 262 121q108 0 171 -42t78 -115.5t15 -212.5
v-560zM1110 311v631q0 97 -1 118t-14 38.5t-44 17.5q-34 0 -49 -24.5t-15 -87.5v-691q0 -102 66 -102q28 0 42.5 20t14.5 80zM586 319v691q0 102 -66 102q-28 0 -42.5 -20t-14.5 -80v-631q0 -97 1 -118t14 -38.5t44 -17.5q34 0 49 24.5t15 87.5z" />
    <glyph glyph-name="afii10087" unicode="&#x445;" horiz-adv-x="888" 
d="M872 1327l-161 -634l195 -693h-393q-58 262 -88 451q-40 -236 -87 -451h-338l174 693l-174 634h338q81 -406 87 -461q58 339 88 461h359z" />
    <glyph glyph-name="afii10088" unicode="&#x446;" horiz-adv-x="1133" 
d="M72 0v1327h401v-1048h143v1048h402v-1048h86v-535h-270v256h-762z" />
    <glyph glyph-name="afii10089" unicode="&#x447;" horiz-adv-x="1055" 
d="M993 0h-403v365q-76 -72 -242 -72q-115 0 -186 41t-87 119t-16 252v622h404v-641q0 -106 10 -143t53 -37q36 0 50 33t14 133v655h403v-1327z" />
    <glyph glyph-name="afii10090" unicode="&#x448;" horiz-adv-x="1640" 
d="M1022 279h143v1048h404v-1327h-1497v1327h403v-1048h143v1048h404v-1048z" />
    <glyph glyph-name="afii10091" unicode="&#x449;" horiz-adv-x="1683" 
d="M72 0v1327h403v-1048h143v1048h404v-1048h143v1048h404v-1048h86v-535h-271v256h-1312z" />
    <glyph glyph-name="afii10092" unicode="&#x44a;" horiz-adv-x="1214" 
d="M1153 379q0 -182 -42.5 -261t-133 -98.5t-297.5 -19.5h-467v1049h-203v278h604v-442h66q193 0 288 -23t140 -101t45 -247v-135zM752 428v53q0 103 -21 125t-117 25v-352q80 0 109 20.5t29 128.5z" />
    <glyph glyph-name="afii10093" unicode="&#x44b;" horiz-adv-x="1606" 
d="M1012 379q0 -182 -42.5 -261t-133.5 -98.5t-297 -19.5h-467v1327h401v-442h66q193 0 288 -23t140 -101t45 -247v-135zM610 428v53q0 103 -20.5 125t-116.5 25v-352q80 0 108.5 20.5t28.5 128.5zM1536 0h-401v1327h401v-1327z" />
    <glyph glyph-name="afii10094" unicode="&#x44c;" horiz-adv-x="1069" 
d="M1012 379q0 -182 -42.5 -261t-133.5 -98.5t-297 -19.5h-467v1327h401v-442h66q193 0 288 -23t140 -101t45 -247v-135zM610 428v53q0 103 -20.5 125t-116.5 25v-352q80 0 108.5 20.5t28.5 128.5z" />
    <glyph glyph-name="afii10095" unicode="&#x44d;" horiz-adv-x="1024" 
d="M397 786h183v230q0 58 -15 77t-47 19q-38 0 -47.5 -34t-9.5 -128v-84h-402v60q0 130 56.5 224t155.5 134.5t266 40.5q213 0 319.5 -99t106.5 -360v-387q0 -127 -15 -204.5t-70.5 -146t-146 -100.5t-223.5 -32q-132 0 -217.5 27.5t-145 97t-74 144t-14.5 190.5v57h381
v-164q0 -78 18.5 -108.5t59.5 -30.5q31 0 47.5 23t16.5 118v256h-183v180z" />
    <glyph glyph-name="afii10096" unicode="&#x44e;" horiz-adv-x="1585" 
d="M598 535h-123v-535h-403v1327h405v-514h121v18q0 118 14 203.5t70.5 157.5t148.5 107.5t218 35.5q132 0 231 -35.5t159 -105t72.5 -139.5t12.5 -195v-323q0 -182 -18.5 -269.5t-83 -153.5t-156.5 -91t-268 -25q-87 0 -144.5 10t-115.5 50t-90 101t-41 136t-9 197v43z
M1120 283v678q0 92 -9 123.5t-50 31.5t-50.5 -32.5t-9.5 -122.5v-635q0 -115 60 -115q26 0 42.5 20.5t16.5 51.5z" />
    <glyph glyph-name="afii10097" unicode="&#x44f;" horiz-adv-x="1047" 
d="M975 0h-402v522q-78 0 -107.5 -33t-29.5 -124v-365h-370v311q0 119 13 171.5t59.5 82.5t158.5 60q-145 13 -188 82.5t-43 248.5q0 198 114.5 284.5t495.5 86.5h299v-1327zM573 752v317h-41q-44 0 -70 -25.5t-26 -119.5v-17q0 -96 29.5 -125.5t107.5 -29.5z" />
    <glyph glyph-name="afii10071" unicode="&#x451;" horiz-adv-x="1047" 
d="M987 640h-523v-287q0 -90 13 -116t50 -26q46 0 61.5 34.5t15.5 133.5v175h383v-98q0 -123 -15.5 -189t-72.5 -141t-144.5 -112.5t-219.5 -37.5q-128 0 -226 37t-152.5 101.5t-75.5 142t-21 225.5v387q0 174 47 274.5t154 154t246 53.5q170 0 280.5 -64.5t155 -171
t44.5 -299.5v-176zM582 856v97q0 103 -11 133t-45 30q-42 0 -52 -25.5t-10 -137.5v-97h118zM433 1676v-260h-261v260h261zM870 1676v-260h-261v260h261z" />
    <glyph glyph-name="afii10099" unicode="&#x452;" horiz-adv-x="1096" 
d="M100 1290h-92v209h92v123h404v-123h217v-209h-217v-192q80 71 241 71q116 0 187 -40.5t86.5 -119t15.5 -251.5v-682q0 -196 -96 -287.5t-363 -91.5h-24v278q49 0 64.5 41t15.5 109v651q0 107 -10 143.5t-54 36.5q-36 0 -49.5 -33t-13.5 -132v-791h-404v1290z" />
    <glyph glyph-name="afii10100" unicode="&#x453;" horiz-adv-x="707" 
d="M72 12v1327h635v-229h-232v-1098h-403zM696 1690l-329 -271h-203l176 271h356z" />
    <glyph glyph-name="afii10101" unicode="&#x454;" horiz-adv-x="1024" 
d="M967 446q0 -117 -15.5 -192.5t-76 -144t-145 -95t-214.5 -26.5q-134 0 -225.5 32.5t-146 102t-69 146.5t-14.5 202v410q0 107 16.5 187.5t67.5 145.5t135 95t207 30q263 0 370.5 -109.5t107.5 -289.5v-59h-402v84q0 94 -9.5 127.5t-47.5 33.5q-32 0 -47 -19t-15 -77v-244
h183v-188h-183v-256q0 -96 16.5 -118.5t47.5 -22.5q41 0 59.5 30.5t18.5 108.5v164h381v-58z" />
    <glyph glyph-name="afii10102" unicode="&#x455;" horiz-adv-x="964" 
d="M897 903h-358v72q0 92 -10.5 116.5t-52.5 24.5q-34 0 -51 -22.5t-17 -67.5q0 -61 8.5 -89.5t51 -62.5t174.5 -99q176 -86 231 -162t55 -221q0 -162 -42 -244.5t-140.5 -127t-237.5 -44.5q-154 0 -263.5 48t-150.5 130t-41 248v64h358v-84q0 -107 13.5 -139t53.5 -32
q43 0 60 21.5t17 90.5q0 95 -22 119q-23 24 -235 142q-178 100 -217 181.5t-39 193.5q0 159 42 234.5t142.5 116.5t233.5 41q132 0 224.5 -33.5t142 -88.5t60 -102t10.5 -147v-77z" />
    <glyph glyph-name="afii10103" unicode="&#x456;" horiz-adv-x="561" 
d="M488 1619v-211h-416v211h416zM488 1327v-1327h-416v1327h416z" />
    <glyph glyph-name="afii10104" unicode="&#x457;" horiz-adv-x="561" 
d="M488 1327v-1327h-416v1327h416zM195 1677v-260h-261v260h261zM632 1677v-260h-261v260h261z" />
    <glyph glyph-name="afii10105" unicode="&#x458;" horiz-adv-x="573" 
d="M500 1619v-211h-416v211h416zM500 1327v-1050q0 -185 -7.5 -250.5t-46 -115t-103 -73.5t-193.5 -24h-156v212q72 0 81 16t9 200v1085h416z" />
    <glyph glyph-name="afii10106" unicode="&#x459;" horiz-adv-x="1688" 
d="M543 1049v-670q0 -183 -42 -261.5t-132.5 -98t-296.5 -19.5h-66v279q77 0 106 19t29 130v899h946v-442h66q193 0 288 -23t140 -101t45 -247v-135q0 -182 -42.5 -261t-133 -98.5t-297.5 -19.5h-467v1049h-143zM1225 428v53q0 103 -21 125t-117 25v-352q80 0 109 20.5
t29 128.5z" />
    <glyph glyph-name="afii10107" unicode="&#x45a;" horiz-adv-x="1606" 
d="M1006 1327v-442h65q193 0 288 -23t140 -101t45 -247v-135q0 -182 -42.5 -261t-133 -98.5t-297.5 -19.5h-467v496h-143v-496h-402v1327h402v-477h143v477h402zM1143 428v53q0 103 -21 125t-116 25v-352q80 0 108.5 20.5t28.5 128.5z" />
    <glyph glyph-name="afii10108" unicode="&#x45b;" horiz-adv-x="1096" 
d="M631 0v776q0 107 -10 143.5t-54 36.5q-36 0 -49.5 -33t-13.5 -132v-791h-404v1290h-92v209h92v123h404v-123h217v-209h-217v-192q76 71 241 71q116 0 187 -40.5t86.5 -119t15.5 -251.5v-758h-403z" />
    <glyph glyph-name="afii10109" unicode="&#x45c;" horiz-adv-x="1047" 
d="M471 1327v-516q127 0 127 135v225q0 136 45 156h389q-45 -65 -45 -192v-185q0 -97 -79 -161q-29 -24 -122 -68q-60 -29 -135 -31q35 -6 131 -33q207 -66 207 -231v-233q0 -128 45 -193h-389q-45 61 -45 156v280q0 135 -129 135v-571h-399v1327h399zM872 1687l-329 -271
h-203l176 271h356z" />
    <glyph glyph-name="afii10110" unicode="&#x45e;" horiz-adv-x="918" 
d="M918 1327l-116 -960q-27 -228 -45.5 -311t-61.5 -137t-119.5 -79.5t-244.5 -25.5h-245v212q94 0 121 9.5t27 42.5q0 16 -25 139l-221 1110h367l132 -895l64 895h367zM581 1718h170q-6 -136 -79.5 -219t-204.5 -83q-132 0 -204.5 83.5t-78.5 218.5h170q12 -137 113 -137
q102 0 114 137z" />
    <glyph glyph-name="afii10193" unicode="&#x45f;" horiz-adv-x="1067" 
d="M397 0h-338v1327h402v-1048h143v1048h402v-1327h-338v-256h-271v256z" />
    <glyph glyph-name="afii10050" unicode="&#x490;" horiz-adv-x="881" 
d="M563 1743h291v-447h-348v-1296h-422v1620h479v123z" />
    <glyph glyph-name="afii10098" unicode="&#x491;" horiz-adv-x="827" 
d="M553 1327v191h270v-469h-348v-1049h-403v1327h481z" />
    <glyph glyph-name="Wgrave" unicode="&#x1e80;" horiz-adv-x="1668" 
d="M1668 1619l-187 -1619h-526q-72 373 -127 848q-25 -203 -117 -848h-523l-188 1619h409l43 -565l44 -545q23 423 116 1110h438q9 -71 46 -534l46 -615q35 587 117 1149h409zM487 1941h356l176 -271h-203z" />
    <glyph glyph-name="wgrave" unicode="&#x1e81;" horiz-adv-x="1371" 
d="M1377 1327l-161 -1327h-439q-36 243 -83 640q-16 -174 -45 -352l-45 -288h-439l-171 1327h348q4 -52 88 -759q6 72 90 759h335l82 -759q19 332 92 759h348zM373 1687h356l176 -271h-203z" />
    <glyph glyph-name="Wacute" unicode="&#x1e82;" horiz-adv-x="1668" 
d="M1668 1619l-187 -1619h-526q-72 373 -127 848q-25 -203 -117 -848h-523l-188 1619h409l43 -565l44 -545q23 423 116 1110h438q9 -71 46 -534l46 -615q35 587 117 1149h409zM1126 1941l-329 -271h-203l176 271h356z" />
    <glyph glyph-name="wacute" unicode="&#x1e83;" horiz-adv-x="1371" 
d="M1377 1327l-161 -1327h-439q-36 243 -83 640q-16 -174 -45 -352l-45 -288h-439l-171 1327h348q4 -52 88 -759q6 72 90 759h335l82 -759q19 332 92 759h348zM978 1687l-329 -271h-203l176 271h356z" />
    <glyph glyph-name="Wdieresis" unicode="&#x1e84;" horiz-adv-x="1667" 
d="M1668 1619l-187 -1619h-526q-72 373 -127 848q-25 -203 -117 -848h-523l-188 1619h409l43 -565l44 -545q23 423 116 1110h438q9 -71 46 -534l46 -615q35 587 117 1149h409zM746 1930v-260h-261v260h261zM1183 1930v-260h-261v260h261z" />
    <glyph glyph-name="wdieresis" unicode="&#x1e85;" horiz-adv-x="1371" 
d="M1377 1327l-161 -1327h-439q-36 243 -83 640q-16 -174 -45 -352l-45 -288h-439l-171 1327h348q4 -52 88 -759q6 72 90 759h335l82 -759q19 332 92 759h348zM595 1676v-260h-261v260h261zM1032 1676v-260h-261v260h261z" />
    <glyph glyph-name="Ygrave" unicode="&#x1ef2;" horiz-adv-x="969" 
d="M981 1619l-307 -1033v-586h-390v586l-296 1033h387q91 -473 102 -637q35 259 117 637h387zM168 1941h356l176 -271h-203z" />
    <glyph glyph-name="ygrave" unicode="&#x1ef3;" horiz-adv-x="918" 
d="M918 1327l-116 -960q-27 -228 -45.5 -311t-61.5 -137t-119.5 -79.5t-244.5 -25.5h-245v212q94 0 121 9.5t27 42.5q0 16 -25 139l-221 1110h367l132 -895l64 895h367zM143 1687h356l176 -271h-203z" />
    <glyph glyph-name="afii00208" unicode="&#x2015;" horiz-adv-x="2048" 
d="M-12 788h2072v-249h-2072v249z" />
    <glyph glyph-name="underscoredbl" unicode="&#x2017;" horiz-adv-x="1130" 
d="M-12 -256v102h1155v-102h-1155zM-12 -461v103h1155v-103h-1155z" />
    <glyph glyph-name="quotereversed" unicode="&#x201b;" horiz-adv-x="344" 
d="M37 1619h271v-317h-68q8 -57 68 -90v-117q-189 40 -244 193q-27 73 -27 186v145z" />
    <glyph glyph-name="minute" unicode="&#x2032;" horiz-adv-x="379" 
d="M297 1098h-207l-10 522h305z" />
    <glyph glyph-name="second" unicode="&#x2033;" horiz-adv-x="795" 
d="M297 1098h-207l-10 522h305zM707 1098h-207l-11 522h306z" />
    <glyph glyph-name="exclamdbl" unicode="&#x203c;" horiz-adv-x="1114" 
d="M72 1620h444l-65 -1221h-314zM590 1620h444l-65 -1221h-314zM104 324h379v-324h-379v324zM623 324h378v-324h-378v324z" />
    <glyph glyph-name="radicalex" unicode="&#x203e;" horiz-adv-x="1201" 
d="M-42 1869h1286v-74h-1286v74z" />
    <glyph glyph-name="nsuperior" unicode="&#x207f;" horiz-adv-x="682" 
d="M305 1620l-6 -74q56 84 178 84q61 0 100 -26t49.5 -72t10.5 -146v-546h-262v538q0 81 -7.5 99t-25.5 18q-24 0 -33.5 -29.5t-9.5 -99.5v-526h-262v780h268z" />
    <glyph glyph-name="franc" unicode="&#x20a3;" horiz-adv-x="815" 
d="M506 289v-289h-422v289h-82v172h82v1159h713v-324h-291v-309h260v-307h-260v-219h139v-172h-139z" />
    <glyph glyph-name="afii08941" unicode="&#x20a4;" horiz-adv-x="1096" 
d="M389 236q80 12 98 12q28 0 80 -8q38 -7 54 -7q45 0 66.5 30.5t21.5 125.5v66h338v-129q0 -139 -18 -203t-91.5 -109t-189.5 -45q-66 0 -195 32q-149 36 -236 36q-150 0 -245 -68v236q110 67 147 330h-147v172h166q0 30 -13 90h-157v170h104l-37.5 69.5t-34 82.5
t-12.5 108q0 196 121.5 310t331.5 114q219 0 344 -114.5t125 -305.5q0 -43 -11 -133h-362v235q0 105 -80 105q-38 0 -65 -33.5t-27 -79.5q0 -63 54 -219q38 -111 38 -139h174v-170h-151q4 -60 4 -95h151v-167h-160q-24 -195 -186 -299z" />
    <glyph glyph-name="peseta" unicode="&#x20a7;" horiz-adv-x="2630" 
d="M506 0h-422v1620h424q157 0 246.5 -20t149.5 -81.5t73.5 -132.5t13.5 -221v-139q0 -243 -97 -309t-276 -66h-112v-651zM639 1077v131q0 82 -25.5 107.5t-107.5 25.5v-411h31q57 0 79.5 27.5t22.5 119.5zM1122 1294v211h404v-211h108v-209h-108v-710q0 -93 5 -121
t25.5 -34.5t96.5 -6.5v-213h-164q-127 0 -190 10t-111 53.5t-57 110t-9 238.5v673h-88v209h88zM2066 467v-141q0 -115 72 -115q37 0 54.5 20t17.5 95q0 78 -18 106.5t-99 73.5q-219 123 -283 175t-88 116.5t-24 210.5q0 168 99.5 245.5t322.5 77.5q132 0 224.5 -26.5
t140.5 -80t58.5 -102t10.5 -143.5v-76h-359v123q0 51 -14.5 71.5t-48.5 20.5q-38 0 -54 -24.5t-16 -94.5q0 -53 25 -90.5t96 -72.5q167 -86 251 -139t116.5 -124t32.5 -180q0 -221 -99 -311t-319 -90q-125 0 -215.5 22t-147 73.5t-75.5 125t-19 188.5v66h358z" />
    <glyph glyph-name="afii61248" unicode="&#x2105;" horiz-adv-x="1419" 
d="M952 1651h152l-633 -1682h-154zM633 1065q0 -98 -23 -163t-94.5 -100.5t-169.5 -35.5q-89 0 -150 18.5t-101.5 63t-49 86.5t-8.5 117v292q0 130 31.5 191t96 89t163.5 28q107 0 182.5 -37.5t99 -98.5t23.5 -163v-39h-246v43q0 153 -51 153q-43 0 -43 -61v-481
q0 -39 12 -49.5t31 -10.5q28 0 34.5 19t6.5 73v88h256v-22zM788 268v293q0 115 24.5 176.5t99.5 96t167 34.5q111 0 189 -42.5t97 -100t19 -164.5v-278q0 -179 -76 -239t-210 -60q-90 0 -153 20t-101.5 64t-47 86t-8.5 114zM1128 217v414q0 58 -6 77t-37 19q-41 0 -41 -61
v-482q0 -39 12 -49t31 -10q29 0 35 18.5t6 73.5z" />
    <glyph glyph-name="afii61289" unicode="&#x2113;" horiz-adv-x="1201" 
d="M623 542q-56 -292 -56 -372q0 -55 29 -55q38 0 83 96q20 42 47 42q38 0 38 -45q0 -81 -68.5 -160.5t-161.5 -79.5q-76 0 -121 64.5t-45 235.5q0 34 3 91q-52 -55 -68 -55q-13 0 -26.5 15.5t-13.5 41.5t27 57q68 76 97 112q61 353 166.5 603t264.5 250q80 0 123 -55.5
t43 -137.5q0 -288 -361 -648zM653 729q90 100 147.5 224t57.5 219q0 74 -35 74q-40 0 -82 -131t-88 -386z" />
    <glyph glyph-name="afii61352" unicode="&#x2116;" horiz-adv-x="1780" 
d="M672 889v731h352v-1620h-369l-219 737v-737h-352v1620h352zM1133 547v293q0 115 24 176.5t99 96t167 34.5q111 0 189 -42.5t97.5 -100.5t19.5 -164v-279q0 -179 -76.5 -239t-210.5 -60q-90 0 -152.5 20t-101.5 64t-47 86t-8 115zM1473 496v413q0 59 -6.5 78t-36.5 19
q-41 0 -41 -62v-481q0 -29 7 -44.5t36 -15.5q28 0 34.5 19t6.5 74zM1110 209h643v-172h-643v172z" />
    <glyph glyph-name="estimated" unicode="&#x212e;" horiz-adv-x="1229" 
d="M321 531v-371q120 -121 298 -121q254 0 395 246l72 -43q-118 -170 -231.5 -223t-235.5 -53q-232 0 -380.5 158.5t-148.5 406.5q0 252 149.5 408.5t379.5 156.5q214 0 366 -142t163 -423h-827zM917 605v297q-124 121 -300 121q-174 0 -296 -121v-297h596z" />
    <glyph glyph-name="oneeighth" unicode="&#x215b;" horiz-adv-x="1365" 
d="M291 1636h149v-854h-256v533q0 47 -28 63q-21 13 -76 13h-68v110q182 32 279 135zM850 1651h151l-632 -1682h-154zM738 650q0 111 89 169q77 51 200 51q294 0 294 -226q0 -61 -30 -97q-23 -30 -86 -63q123 -55 123 -237q0 -263 -298 -263q-299 0 -299 274q0 160 111 226
q-104 55 -104 166zM1072 582v105q0 51 -44 51q-41 0 -41 -55v-107q0 -42 44 -42q41 0 41 48zM1077 321q0 73 -49 73q-46 0 -46 -82v-119q0 -78 50 -78q45 0 45 78v128z" />
    <glyph glyph-name="threeeighths" unicode="&#x215c;" horiz-adv-x="1508" 
d="M37 1378v62q0 118 62.5 165.5t215.5 47.5q156 0 228 -51q80 -55 80 -181q0 -114 -91 -157q69 -24 90 -90q11 -37 11 -132q0 -140 -59 -203q-69 -73 -236 -73q-194 0 -259 89q-42 58 -42 202v57h256v-162q0 -45 39 -45q31 0 39 26q6 18 6 85v55q0 69 -33 87
q-24 14 -117 16v133h19q82 0 99 7q32 14 32 79v47q0 67 -41 67q-43 0 -43 -45v-86h-256zM989 1651h152l-633 -1682h-154zM882 650q0 111 88 169q77 51 201 51q293 0 293 -226q0 -61 -29 -97q-24 -30 -86 -63q123 -55 123 -237q0 -263 -299 -263t-299 274q0 160 111 226
q-103 55 -103 166zM1216 582v105q0 51 -44 51q-42 0 -42 -55v-107q0 -42 44 -42q42 0 42 48zM1220 321q0 73 -48 73q-46 0 -46 -82v-119q0 -78 49 -78q45 0 45 78v128z" />
    <glyph glyph-name="fiveeighths" unicode="&#x215d;" horiz-adv-x="1513" 
d="M994 1651h151l-633 -1682h-153zM886 650q0 111 88 169q77 51 201 51q293 0 293 -226q0 -61 -29 -97q-24 -30 -86 -63q123 -55 123 -237q0 -263 -299 -263q-298 0 -298 274q0 160 111 226q-104 55 -104 166zM1220 582v105q0 51 -44 51q-42 0 -42 -55v-107q0 -42 44 -42
q42 0 42 48zM1224 321q0 73 -48 73q-46 0 -46 -82v-119q0 -78 49 -78q45 0 45 78v128zM48 1638h546v-149h-308v-133q52 59 124 59q113 0 174 -69q56 -64 56 -170v-135q0 -273 -298 -273q-171 0 -243 93q-62 79 -62 244h258q2 -110 2 -114q10 -91 50 -91q27 0 43 90
q12 63 12 112q0 88 -3 108q-12 73 -59 73q-37 0 -45 -76h-256z" />
    <glyph glyph-name="seveneighths" unicode="&#x215e;" horiz-adv-x="1293" 
d="M774 1651h152l-633 -1682h-154zM667 650q0 111 88 169q77 51 201 51q293 0 293 -226q0 -61 -29 -97q-24 -30 -86 -63q122 -55 122 -237q0 -263 -298 -263q-299 0 -299 274q0 160 111 226q-103 55 -103 166zM1001 582v105q0 51 -44 51q-42 0 -42 -55v-107q0 -42 44 -42
q42 0 42 48zM1005 321q0 73 -48 73q-46 0 -46 -82v-119q0 -78 49 -78q45 0 45 78v128zM12 1634h452v-187l-136 -667h-256l147 683l-207 2v169z" />
    <glyph glyph-name="fraction1" unicode="&#x2044;" horiz-adv-x="256" 
d="M521 1650l-632 -1681h-154l635 1681h151z" />
    <glyph glyph-name="arrowleft" unicode="&#x2190;" horiz-adv-x="2048" 
d="M492 157q-121 135 -209 205.5t-204 131.5v46q116 61 203 130.5t210 205.5h76q-46 -96 -77.5 -147.5t-88.5 -124.5h1566v-175h-1566q55 -69 88 -122.5t78 -149.5h-76z" />
    <glyph glyph-name="arrowup" unicode="&#x2191;" horiz-adv-x="1024" 
d="M153 926q135 122 205.5 209.5t131.5 203.5h45q61 -116 130.5 -202.5t206.5 -210.5v-76q-97 46 -148.5 78t-123.5 88v-1445h-175v1445q-69 -54 -122.5 -87t-149.5 -79v76z" />
    <glyph glyph-name="arrowright" unicode="&#x2192;" horiz-adv-x="2048" 
d="M1555 876q122 -135 209.5 -205t203.5 -132v-45q-116 -61 -202.5 -130.5t-210.5 -206.5h-76q46 97 78 148.5t88 123.5h-1566v175h1566q-54 69 -87 122.5t-79 149.5h76z" />
    <glyph glyph-name="arrowdown" unicode="&#x2193;" horiz-adv-x="1024" 
d="M871 -16q-135 -122 -205.5 -209.5t-131.5 -203.5h-45q-61 116 -131 202.5t-206 210.5v76q97 -46 148.5 -78t123.5 -88v1445h175v-1445q69 54 122.5 87t149.5 79v-76z" />
    <glyph glyph-name="arrowboth" unicode="&#x2194;" horiz-adv-x="2048" 
d="M402 604h1243q-54 68 -87 122t-79 150h76q122 -135 209.5 -205t203.5 -132v-45q-116 -61 -202.5 -130.5t-210.5 -206.5h-76q46 97 77.5 148t88.5 124h-1243q55 -69 88 -122.5t78 -149.5h-76q-121 135 -209 205.5t-204 131.5v46q116 61 203 130.5t210 205.5h76
q-46 -96 -77.5 -147.5t-88.5 -124.5z" />
    <glyph glyph-name="arrowupdn" unicode="&#x2195;" horiz-adv-x="1024" 
d="M600 1139v-1243q68 54 122 87.5t150 79.5v-77q-135 -121 -205.5 -208.5t-131.5 -204.5h-45q-61 116 -131 203t-206 210v77q96 -47 147.5 -78t124.5 -89v1243q-69 -54 -122.5 -87t-149.5 -79v76q135 122 205.5 209.5t131.5 204.5h45q61 -117 130.5 -203.5t206.5 -210.5
v-76q-97 46 -148.5 78t-123.5 88z" />
    <glyph glyph-name="arrowupdnbse" unicode="&#x21a8;" horiz-adv-x="1024" 
d="M599 1139v-1243q68 54 122 87.5t150 79.5v-77q-135 -121 -205.5 -208.5t-131.5 -204.5h-45q-61 116 -131 203t-206 210v77q96 -47 147.5 -78t124.5 -89v1243q-69 -54 -122.5 -87t-149.5 -79v76q135 122 205.5 209.5t131.5 204.5h45q61 -117 130.5 -203.5t206.5 -210.5
v-76q-97 46 -148.5 78t-123.5 88zM152 -502h719v-175h-719v175z" />
    <glyph glyph-name="orthogonal" unicode="&#x221f;" horiz-adv-x="2048" 
d="M123 0v1782h135v-1647h1667v-135h-1802z" />
    <glyph glyph-name="intersection" unicode="&#x2229;" horiz-adv-x="1473" 
d="M350 0h-206v636q0 271 14.5 386t84 226t205 185.5t289.5 74.5t289 -75t203 -181t84 -222.5t16 -393.5v-636h-206v642q0 274 -21.5 386t-125 195t-239.5 83q-103 0 -194.5 -53t-132 -124.5t-50.5 -167t-10 -319.5v-642z" />
    <glyph glyph-name="equivalence" unicode="&#x2261;" horiz-adv-x="1092" 
d="M65 1190h942v-244h-942v244zM65 808h942v-244h-942v244zM65 426h942v-244h-942v244z" />
    <glyph glyph-name="house" unicode="&#x2302;" horiz-adv-x="1229" 
d="M153 0v634l461 519l462 -519v-634h-923zM234 81h761v519l-381 427l-380 -427v-519z" />
    <glyph glyph-name="revlogicalnot" unicode="&#x2310;" horiz-adv-x="1092" 
d="M1029 1126h-964v-634h244v389h720v245z" />
    <glyph glyph-name="integraltp" unicode="&#x2320;" horiz-adv-x="1237" 
d="M691 -515h-145v1811q0 219 89.5 330t202.5 111q67 0 102.5 -32.5t35.5 -76.5q0 -40 -25.5 -66t-62.5 -26q-30 0 -57 15q-18 10 -41.5 46.5t-46.5 36.5q-17 0 -31 -12q-10 -8 -14 -27q-7 -33 -7 -139v-1971z" />
    <glyph glyph-name="integralbt" unicode="&#x2321;" horiz-adv-x="1237" 
d="M546 1737h145v-1811q0 -219 -89.5 -330t-202.5 -111q-67 0 -102.5 32.5t-35.5 76.5q0 40 25.5 66t61.5 26q31 0 59 -16q18 -10 41 -46t46 -36q17 0 31 11q10 8 14 29q7 32 7 138v1971z" />
    <glyph glyph-name="SF100000" unicode="&#x2500;" 
d="M1473 534h-1496v175h1496v-175z" />
    <glyph glyph-name="SF110000" unicode="&#x2502;" 
d="M638 -621v2485h175v-2485h-175z" />
    <glyph glyph-name="SF010000" unicode="&#x250c;" 
d="M1474 709v-175h-661v-1155h-175v1330h836z" />
    <glyph glyph-name="SF030000" unicode="&#x2510;" 
d="M637 534h-660v175h835v-1330h-175v1155z" />
    <glyph glyph-name="SF020000" unicode="&#x2514;" 
d="M638 534v1330h175v-1155h661v-175h-836z" />
    <glyph glyph-name="SF040000" unicode="&#x2518;" 
d="M812 534h-835v175h660v1155h175v-1330z" />
    <glyph glyph-name="SF080000" unicode="&#x251c;" 
d="M638 -621v2485h175v-1155h661v-175h-661v-1155h-175z" />
    <glyph glyph-name="SF090000" unicode="&#x2524;" 
d="M637 -621v1155h-660v175h660v1155h175v-2485h-175z" />
    <glyph glyph-name="SF060000" unicode="&#x252c;" 
d="M637 534h-660v175h1496v-175h-661v-1155h-175v1155z" />
    <glyph glyph-name="SF070000" unicode="&#x2534;" 
d="M1473 534h-1496v175h660v1155h175v-1155h661v-175z" />
    <glyph glyph-name="SF050000" unicode="&#x253c;" 
d="M637 534h-660v175h660v1155h175v-1155h661v-175h-661v-1155h-175v1155z" />
    <glyph glyph-name="SF430000" unicode="&#x2550;" 
d="M1473 724h-1496v175h1496v-175zM1473 344h-1496v175h1496v-175z" />
    <glyph glyph-name="SF240000" unicode="&#x2551;" 
d="M829 -621v2485h175v-2485h-175zM448 -621v2485h175v-2485h-175z" />
    <glyph glyph-name="SF510000" unicode="&#x2552;" 
d="M638 -621v1520h836v-175h-661v-205h661v-175h-661v-965h-175z" />
    <glyph glyph-name="SF520000" unicode="&#x2553;" 
d="M448 -621v1330h1027v-175h-471v-1155h-175v1155h-206v-1155h-175z" />
    <glyph glyph-name="SF390000" unicode="&#x2554;" 
d="M623 -621h-175v1520h1026v-175h-851v-1345zM1004 344v-965h-175v1140h645v-175h-470z" />
    <glyph glyph-name="SF220000" unicode="&#x2555;" 
d="M637 344h-660v175h660v205h-660v175h835v-1520h-175v965z" />
    <glyph glyph-name="SF210000" unicode="&#x2556;" 
d="M448 -621v1155h-471v175h1026v-1330h-175v1155h-206v-1155h-174z" />
    <glyph glyph-name="SF250000" unicode="&#x2557;" 
d="M828 -621v1345h-851v175h1026v-1520h-175zM447 344h-470v175h645v-1140h-175v965z" />
    <glyph glyph-name="SF500000" unicode="&#x2558;" 
d="M638 344v1520h175v-965h661v-175h-661v-205h661v-175h-836z" />
    <glyph glyph-name="SF490000" unicode="&#x2559;" 
d="M1475 534h-1027v1330h175v-1155h206v1155h175v-1155h471v-175z" />
    <glyph glyph-name="SF380000" unicode="&#x255a;" 
d="M623 1864v-1345h850v-175h-1025v1520h175zM1004 899h470v-175h-645v1140h175v-965z" />
    <glyph glyph-name="SF280000" unicode="&#x255b;" 
d="M812 344h-835v175h660v205h-660v175h660v965h175v-1520z" />
    <glyph glyph-name="SF270000" unicode="&#x255c;" 
d="M1003 534h-1026v175h470v1155h175v-1155h206v1155h175v-1330z" />
    <glyph glyph-name="SF260000" unicode="&#x255d;" 
d="M828 1864h175v-1520h-1026v175h851v1345zM447 899v965h175v-1140h-645v175h470z" />
    <glyph glyph-name="SF360000" unicode="&#x255e;" 
d="M638 -621v2485h175v-965h661v-175h-661v-205h661v-175h-661v-965h-175z" />
    <glyph glyph-name="SF370000" unicode="&#x255f;" 
d="M829 -621v2485h175v-1155h470v-175h-470v-1155h-175zM448 -621v2485h175v-2485h-175z" />
    <glyph glyph-name="SF420000" unicode="&#x2560;" 
d="M448 -621v2485h175v-2485h-175zM829 724v1140h175v-965h470v-175h-645zM829 -621v1140h645v-175h-470v-965h-175z" />
    <glyph glyph-name="SF190000" unicode="&#x2561;" 
d="M637 344h-660v175h660v205h-660v175h660v965h175v-2485h-175v965z" />
    <glyph glyph-name="SF200000" unicode="&#x2562;" 
d="M447 -621l1 1155h-471v175h470v1155h175v-2485h-175zM828 -621v2485h175v-2485h-175z" />
    <glyph glyph-name="SF230000" unicode="&#x2563;" 
d="M828 -621v2485h175v-2485h-175zM622 1864v-1140h-645v175h470v965h175zM447 344h-470v175h645v-1140h-175v965z" />
    <glyph glyph-name="SF470000" unicode="&#x2564;" 
d="M1473 724h-1496v175h1496v-175zM637 344h-660v175h1496v-175h-661v-965h-175v965z" />
    <glyph glyph-name="SF480000" unicode="&#x2565;" 
d="M447 -621v1155h-470v175h1496v-175h-470v-1155h-175v1155h-206v-1155h-175z" />
    <glyph glyph-name="SF410000" unicode="&#x2566;" 
d="M1473 724h-1496v175h1496v-175zM447 344h-470v175h645v-1140h-175v965zM828 -621v1140h645v-175h-470v-965h-175z" />
    <glyph glyph-name="SF450000" unicode="&#x2567;" 
d="M1473 724h-1496v175h660v965h175v-965h661v-175zM1473 344h-1496v175h1496v-175z" />
    <glyph glyph-name="SF460000" unicode="&#x2568;" 
d="M1473 534h-1496v175h470v1155h175v-1155h206v1155h175v-1155h470v-175z" />
    <glyph glyph-name="SF400000" unicode="&#x2569;" 
d="M622 724h-645v175h470v965h175v-1140zM1473 724h-645v1140h175v-965h470v-175zM1473 344h-1496v175h1496v-175z" />
    <glyph glyph-name="SF540000" unicode="&#x256a;" 
d="M637 344h-660v175h660v205h-660v175h660v965h175v-965h661v-175h-661v-205h661v-175h-661v-965h-175v965z" />
    <glyph glyph-name="SF530000" unicode="&#x256b;" 
d="M447 -621v1155h-470v175h470v1155h175v-1155h206v1155h175v-1155h470v-175h-470v-1155h-175v1155h-206v-1155h-175z" />
    <glyph glyph-name="SF440000" unicode="&#x256c;" 
d="M1003 899h470v-175h-645v1140h175v-965zM447 899v965h175v-1140h-645v175h470zM447 344h-470v175h645v-1140h-175v965zM1003 344v-965h-175v1140h645v-175h-470z" />
    <glyph glyph-name="upblock" unicode="&#x2580;" 
d="M1473 621h-1496v1243h1496v-1243z" />
    <glyph glyph-name="dnblock" unicode="&#x2584;" 
d="M1473 -621h-1496v1242h1496v-1242z" />
    <glyph glyph-name="block" unicode="&#x2588;" 
d="M-23 -621v2485h1496v-2485h-1496z" />
    <glyph glyph-name="lfblock" unicode="&#x258c;" 
d="M-23 -621v2485h748v-2485h-748z" />
    <glyph glyph-name="rtblock" unicode="&#x2590;" 
d="M726 -621v2485h748v-2485h-748z" />
    <glyph glyph-name="ltshade" unicode="&#x2591;" 
d="M0 1864h121v-125h-121v125zM482 1864h121v-125h-121v125zM965 1864h121v-125h-121v125zM241 1615h121v-125h-121v125zM723 1615h121v-125h-121v125zM1206 1615h121v-125h-121v125zM965 1366h121v-125h-121v125zM482 1366h121v-125h-121v125zM0 1366h121v-125h-121v125z
M1206 1117h121v-125h-121v125zM723 1117h121v-125h-121v125zM241 1117h121v-125h-121v125zM0 867h121v-125h-121v125zM482 867h121v-125h-121v125zM965 867h121v-125h-121v125zM1206 618h121v-125h-121v125zM723 618h121v-125h-121v125zM241 618h121v-125h-121v125zM0 369
h121v-125h-121v125zM482 369h121v-125h-121v125zM965 369h121v-125h-121v125zM241 120h121v-125h-121v125zM723 120h121v-125h-121v125zM1206 120h121v-125h-121v125zM965 -130h121v-125h-121v125zM482 -130h121v-125h-121v125zM0 -130h121v-125h-121v125zM241 -379h121
v-125h-121v125zM723 -379h121v-125h-121v125zM1206 -379h121v-125h-121v125z" />
    <glyph glyph-name="shade" unicode="&#x2592;" 
d="M121 1864h120v-125h-120v125zM362 1864h120v-125h-120v125zM603 1864h121v-125h-121v125zM844 1864h121v-125h-121v125zM1086 1864h120v-125h-120v125zM1327 1864h120v-125h-120v125zM0 1615h121v-125h-121v125zM241 1615h121v-125h-121v125zM482 1615h121v-125h-121v125
zM724 1615h120v-125h-120v125zM965 1615h121v-125h-121v125zM1206 1615h121v-125h-121v125zM121 1366h120v-125h-120v125zM362 1366h120v-125h-120v125zM603 1366h121v-125h-121v125zM844 1366h121v-125h-121v125zM1086 1366h120v-125h-120v125zM1327 1366h120v-125h-120
v125zM241 1116h121v-124h-121v124zM482 1116h121v-124h-121v124zM724 1116h120v-124h-120v124zM965 1116h121v-124h-121v124zM1206 1116h121v-124h-121v124zM0 1116h121v-124h-121v124zM121 867h120v-125h-120v125zM362 867h120v-125h-120v125zM603 867h121v-125h-121v125z
M844 867h121v-125h-121v125zM1086 867h120v-125h-120v125zM1327 867h120v-125h-120v125zM0 618h121v-125h-121v125zM482 618h121v-125h-121v125zM724 618h120v-125h-120v125zM965 618h121v-125h-121v125zM1206 618h121v-125h-121v125zM241 618h121v-125h-121v125zM1327 369
h120v-125h-120v125zM1086 369h120v-125h-120v125zM844 369h121v-125h-121v125zM603 369h121v-125h-121v125zM362 369h120v-125h-120v125zM121 369h120v-125h-120v125zM0 119h121v-124h-121v124zM241 119h121v-124h-121v124zM482 119h121v-124h-121v124zM724 119h120v-124
h-120v124zM965 119h121v-124h-121v124zM1206 119h121v-124h-121v124zM1327 -130h120v-125h-120v125zM1086 -130h120v-125h-120v125zM844 -130h121v-125h-121v125zM603 -130h121v-125h-121v125zM362 -130h120v-125h-120v125zM121 -130h120v-125h-120v125zM0 -379h121v-125
h-121v125zM241 -379h121v-125h-121v125zM482 -379h121v-125h-121v125zM724 -379h120v-125h-120v125zM965 -380l121 1v-125h-121v124zM1206 -379h121v-125h-121v125z" />
    <glyph glyph-name="dkshade" unicode="&#x2593;" 
d="M1447 1490v-374h-120v-124h120v-374h-120v-125h120v-374h-120v-124h120v-374h-120v-125h120v-124h-1447v373h121v125h-121v374h121v125h-121v373h121v125h-121v374h121v125h-121v373h121v125h120v-125h121v125h120v-125h121v125h121v-125h120v125h121v-125h121v125h120
v-125h121v125h120v-249h-120v-125h120zM121 1615v-125h120v125h-120zM362 1615v-125h120v125h-120zM603 1615v-125h121v125h-121zM844 1615v-125h121v125h-121zM1086 1615v-125h120v125h-120zM1327 1366h-121v-125h121v125zM1086 1366h-121v-125h121v125zM844 1366h-120
v-125h120v125zM603 1366h-121v-125h121v125zM362 1366h-121v-125h121v125zM121 1116v-124h120v124h-120zM362 1116v-124h120v124h-120zM603 1116v-124h121v124h-121zM844 1116v-124h121v124h-121zM1086 1116v-124h120v124h-120zM362 867h-121v-125h121v125zM482 867v-125
h121v125h-121zM724 867v-125h120v125h-120zM965 867v-125h121v125h-121zM1206 867v-125h121v125h-121zM121 618v-125h120v125h-120zM603 618v-125h121v125h-121zM482 493v125h-120v-125h120zM844 618v-125h121v125h-121zM1086 618v-125h120v125h-120zM1327 244v125h-121
v-125h121zM1086 244v125h-121v-125h121zM844 244v125h-120v-125h120zM603 244v125h-121v-125h121zM362 244v125h-121v-125h121zM121 119v-124h120v124h-120zM362 119v-124h120v124h-120zM603 119v-124h121v124h-121zM844 119v-124h121v124h-121zM1086 119v-124h120v124h-120
zM1327 -255v125h-121v-125h121zM1086 -255v125h-121v-125h121zM844 -255v125h-120v-125h120zM603 -255v125h-121v-125h121zM362 -255v125h-121v-125h121zM121 -379v-125h120v125h-120zM362 -379v-125h120v125h-120zM603 -379v-125h121v125h-121zM844 -379v-125h121v125h-121
zM1086 -379v-125h120v125h-120z" />
    <glyph glyph-name="filledbox" unicode="&#x25a0;" horiz-adv-x="1237" 
d="M146 944h944v-944h-944v944z" />
    <glyph glyph-name="H22073" unicode="&#x25a1;" horiz-adv-x="1237" 
d="M146 944h944v-944h-944v944zM222 868v-792h792v792h-792z" />
    <glyph glyph-name="H18543" unicode="&#x25aa;" horiz-adv-x="726" 
d="M594 909v-464h-463v463z" />
    <glyph glyph-name="H18551" unicode="&#x25ab;" horiz-adv-x="726" 
d="M594 909v-464h-463v463zM518 833l-311 -1v-311h311v312z" />
    <glyph glyph-name="filledrect" unicode="&#x25ac;" horiz-adv-x="2048" 
d="M340 386h1368v-386h-1368v386z" />
    <glyph glyph-name="triagup" unicode="&#x25b2;" horiz-adv-x="2027" 
d="M304 0l710 1419l710 -1419h-1420z" />
    <glyph glyph-name="triagrt" unicode="&#x25ba;" horiz-adv-x="2027" 
d="M288 1417l1451 -724l-1451 -724v1448z" />
    <glyph glyph-name="triagdn" unicode="&#x25bc;" horiz-adv-x="2027" 
d="M1724 1388l-710 -1419l-710 1419h1420z" />
    <glyph glyph-name="triaglf" unicode="&#x25c4;" horiz-adv-x="2027" 
d="M1739 1417v-1448l-1451 724z" />
    <glyph glyph-name="circle" unicode="&#x25cb;" horiz-adv-x="1237" 
d="M619 1018q110 0 216 -57t165 -163t59 -220q0 -183 -129 -312t-311 -129q-183 0 -312 129t-129 312q0 115 59 220.5t165 162.5t217 57zM619 942q-93 0 -180 -47t-136 -135t-49 -182q0 -151 107 -258t258 -107t257.5 107t106.5 258q0 94 -49 182t-136 135t-179 47z" />
    <glyph glyph-name="H18533" unicode="&#x25cf;" horiz-adv-x="1237" 
d="M619 1018q110 0 216 -57t165 -163t59 -220q0 -183 -129 -312t-311 -129q-183 0 -312 129t-129 312q0 115 59 220.5t165 162.5t217 57z" />
    <glyph glyph-name="invbullet" unicode="&#x25d8;" horiz-adv-x="1237" 
d="M128 0v980h980v-980h-980zM618 692q-84 0 -143 -59t-59 -143q0 -83 59.5 -142.5t142.5 -59.5q84 0 143 59.5t59 142.5q0 84 -59 143t-143 59z" />
    <glyph glyph-name="invcircle" unicode="&#x25d9;" horiz-adv-x="1237" 
d="M42 0v1155h1155v-1155h-1155zM619 1018q-111 0 -216.5 -57t-164.5 -163t-59 -221q0 -182 129 -311t311 -129q183 0 312 129t129 311q0 115 -59 221t-164.5 163t-217.5 57zM620 942q91 0 178.5 -47t136.5 -134.5t49 -183.5q0 -151 -106.5 -257.5t-257.5 -106.5
q-152 0 -258.5 106.5t-106.5 257.5q0 96 49 183.5t136.5 134.5t179.5 47z" />
    <glyph glyph-name="openbullet" unicode="&#x25e6;" horiz-adv-x="726" 
d="M363 928q104 0 177.5 -73.5t73.5 -177.5t-73.5 -177.5t-177.5 -73.5t-177.5 73.5t-73.5 177.5t73 177.5t178 73.5zM363 852q-73 0 -124 -51.5t-51 -123.5q0 -73 51.5 -124t123.5 -51t123.5 51t51.5 124q0 72 -51 123.5t-124 51.5z" />
    <glyph glyph-name="smileface" unicode="&#x263a;" horiz-adv-x="2048" 
d="M1024 1156q160 0 313 -82.5t239 -236t86 -319.5q0 -165 -84.5 -316.5t-236.5 -236t-317 -84.5q-166 0 -317.5 84.5t-236 236t-84.5 316.5q0 166 85.5 319.5t238.5 236t314 82.5zM1024 1063q-137 0 -267.5 -70.5t-204 -201.5t-73.5 -273q0 -141 72 -270.5t202 -201.5
t271 -72t271 72t202 201.5t72 270.5q0 142 -73.5 273t-204 201.5t-267.5 70.5zM779 731q34 0 57.5 -23.5t23.5 -57.5q0 -33 -23.5 -57t-57.5 -24q-33 0 -57 24t-24 57q0 34 24 57.5t57 23.5zM1268 731q34 0 57.5 -23.5t23.5 -57.5q0 -33 -23.5 -57t-57.5 -24q-33 0 -57 24
t-24 57q0 34 23.5 57.5t57.5 23.5zM730 313l62 36q79 -144 232 -144t231 144l63 -36q-50 -95 -123.5 -145t-170.5 -50q-98 0 -171 50t-123 145z" />
    <glyph glyph-name="invsmileface" unicode="&#x263b;" horiz-adv-x="2048" 
d="M1024 1156q160 0 313 -82.5t239 -236t86 -319.5q0 -165 -84.5 -316.5t-236.5 -236t-317 -84.5q-166 0 -317.5 84.5t-236 236t-84.5 316.5q0 166 85.5 319.5t238.5 236t314 82.5zM779 731q-33 0 -57 -23.5t-24 -57.5q0 -33 24 -57t57 -24q34 0 57.5 24t23.5 57
q0 34 -23.5 57.5t-57.5 23.5zM1268 731q-34 0 -57.5 -23.5t-23.5 -57.5q0 -33 24 -57t57 -24q34 0 57.5 24t23.5 57q0 34 -23.5 57.5t-57.5 23.5zM730 313q50 -95 123 -145t171 -50q97 0 170.5 50t123.5 145l-63 36q-78 -144 -231 -144t-232 144z" />
    <glyph glyph-name="sun" unicode="&#x263c;" horiz-adv-x="1877" 
d="M902 1621h76v-337q102 -7 181.5 -38.5t167.5 -102.5l290 284l52 -53l-286 -286q73 -95 103 -169q38 -96 41 -185h335v-69h-335q-19 -193 -143 -351l285 -291l-57 -50l-283 282q-98 -72 -171 -100.5t-180 -40.5v-337h-76v337q-112 15 -188.5 46t-156.5 92l-294 -278
l-51 51l285 286q-66 84 -100 166t-45 188h-336v69h336q9 106 42 185.5t102 163.5l-284 287l48 57l292 -282q101 70 179.5 100.5t170.5 38.5v337zM937 1211q-129 0 -252 -66t-191.5 -189.5t-68.5 -256.5t67.5 -255t189.5 -190t255 -68t255 68t190 190t68 255t-69 256.5
t-192 189.5t-252 66z" />
    <glyph glyph-name="female" unicode="&#x2640;" horiz-adv-x="1536" 
d="M796 461v-402h459v-59h-459v-439h-59v439h-460v59h460v402q-103 0 -225.5 65.5t-195 191t-72.5 265.5q0 136 69.5 261t193.5 194t261 69q136 0 260.5 -69.5t193.5 -194t69 -260.5q0 -209 -143.5 -360.5t-351.5 -161.5zM767 1451q-118 0 -230.5 -60.5t-175.5 -173.5
t-63 -235q0 -195 137.5 -332.5t331.5 -137.5q195 0 332.5 137.5t137.5 332.5q0 122 -63 235t-175.5 173.5t-231.5 60.5z" />
    <glyph glyph-name="male" unicode="&#x2642;" horiz-adv-x="1536" 
d="M1216 1620l36 -16l163 -666l-57 -15l-142 581l-358 -768q148 -75 224 -202t76 -272q0 -136 -69 -260.5t-193.5 -194t-261.5 -69.5q-136 0 -260.5 69.5t-193.5 194t-69 260.5q0 217 153.5 370t372.5 153q78 0 166 -27l360 771l-537 -265l-24 53zM634 731
q-118 0 -230.5 -60.5t-175.5 -173.5t-63 -235q0 -195 137.5 -332.5t331.5 -137.5q195 0 332.5 137.5t137.5 332.5q0 122 -63 235t-175.5 173.5t-231.5 60.5z" />
    <glyph glyph-name="spade" unicode="&#x2660;" horiz-adv-x="1344" 
d="M673 1231q26 -108 80 -193t192.5 -210.5t175.5 -193t37 -136.5q0 -95 -64 -159t-154 -64q-82 0 -154 57q-54 42 -101 133q1 -147 38.5 -233.5t119.5 -136t219 -58.5l7 -37h-792l7 37q184 0 285.5 107.5t97.5 320.5q-45 -95 -111.5 -142.5t-149.5 -47.5q-90 0 -155 65
t-65 154q0 74 32 133q45 83 146.5 166t149.5 137q74 83 107.5 148t51.5 153z" />
    <glyph glyph-name="club" unicode="&#x2663;" horiz-adv-x="1344" 
d="M1098 0h-848l8 34q165 35 219 69q81 51 132.5 151t51.5 210q0 16 -1 47q-61 -124 -148.5 -181t-178.5 -57q-116 0 -197 81t-81 199q0 116 74 195.5t165 81.5q63 -2 166 -53q-42 69 -54.5 105t-12.5 77q0 115 79 193.5t198 78.5q117 0 197.5 -78.5t80.5 -189.5
q0 -88 -69 -186q84 40 101 45q27 8 61 8q100 0 173.5 -78.5t73.5 -194.5q0 -120 -80.5 -201.5t-196.5 -82.5q-77 4 -134.5 33t-107.5 80q-35 37 -87 125q4 -159 48.5 -251.5t136.5 -153.5q62 -41 223 -72z" />
    <glyph glyph-name="heart" unicode="&#x2665;" horiz-adv-x="1344" 
d="M674 -24q-31 118 -88.5 221.5t-222.5 321.5q-121 160 -149 203q-46 70 -66.5 128.5t-20.5 118.5q0 111 74 186t180 76q113 -1 194 -79q61 -58 99 -173q32 112 92 171q83 81 191 81q109 0 184.5 -74t75.5 -176q0 -91 -43.5 -188t-170.5 -257q-164 -207 -239 -340
q-59 -105 -90 -220z" />
    <glyph glyph-name="diamond" unicode="&#x2666;" horiz-adv-x="1344" 
d="M671 1234q88 -154 218 -327q150 -200 242 -303q-74 -78 -242 -302q-136 -182 -218 -326q-27 52 -74 121q-81 120 -201 279q-26 35 -183 228q101 115 260 328q118 158 198 302z" />
    <glyph glyph-name="musicalnote" unicode="&#x266a;" horiz-adv-x="1024" 
d="M486 1363h38q172 0 227 -14q79 -20 139 -77q45 -42 71 -118.5t26 -178.5v-103h-99v43q0 68 -28.5 115.5t-84.5 72.5q-73 32 -162 32h-28v-835q0 -121 -32 -188.5t-110 -108t-170 -40.5q-109 0 -172.5 61.5t-63.5 161.5q0 105 76 176.5t199 71.5q78 0 174 -46v975z" />
    <glyph glyph-name="musicalnotedbl" unicode="&#x266b;" horiz-adv-x="1536" 
d="M534 1271l796 248v-1108q0 -124 -31.5 -187t-107 -104t-170.5 -41q-109 0 -174 62.5t-65 161.5q0 100 77 172.5t199 72.5q40 0 70.5 -7t99.5 -36v724l-595 -185v-836q0 -121 -32 -188.5t-110 -107.5t-170 -40q-109 0 -172.5 61.5t-63.5 160.5q0 105 76 176.5t199 71.5
q78 0 174 -46v975z" />
    <glyph glyph-name="fi1" unicode="&#xf001;" horiz-adv-x="1148" 
d="M1075 1619v-211h-416v211h416zM587 1619v-205q-125 0 -147.5 -11.5t-22.5 -65.5v-42h170v-210h-96v-1085h-404v1085h-83v210h83q0 131 9 175t44.5 78.5t99.5 52.5t199 18h148zM1075 1327v-1327h-416v1327h416z" />
    <glyph glyph-name="fl1" unicode="&#xf002;" horiz-adv-x="1145" 
d="M587 1619v-205q-125 0 -147.5 -11.5t-22.5 -65.5v-42h170v-210h-96v-1085h-404v1085h-83v210h83q0 131 9 175t44.5 78.5t99.5 52.5t199 18h148zM1072 1619v-1619h-416v1619h416z" />
    <glyph glyph-name="commaaccent" unicode="&#xf003;" horiz-adv-x="344" 
d="M36 1620h272v-84q0 -322 -272 -379v117q58 35 67 90h-67v256z" />
    <glyph glyph-name="undercommaaccent" unicode="&#xf004;" horiz-adv-x="344" 
d="M36 -72h272v-84q0 -322 -272 -379v117q58 35 67 90h-67v256z" />
    <glyph glyph-name="currency" unicode="&#xa4;" horiz-adv-x="1123" 
d="M814 1061l132 133l140 -142l-131 -133q73 -121 73 -249q0 -135 -73 -254l131 -130l-140 -141l-132 129q-59 -37 -123 -55.5t-132 -18.5q-65 0 -127.5 18.5t-122.5 55.5l-130 -129l-143 141l132 130q-74 119 -74 254q0 126 74 249l-132 133l140 142l133 -133
q62 37 124.5 55.5t126.5 18.5t127.5 -18.5t126.5 -55.5zM293 674q0 -119 80 -196.5t188 -77.5q111 0 189.5 78.5t78.5 188.5q0 111 -78.5 189.5t-189.5 78.5q-115 0 -191.5 -81.5t-76.5 -179.5z" />
    <glyph glyph-name="uni0218" unicode="&#x218;" horiz-adv-x="1059" 
d="M976 1129h-391v120q0 84 -15 107t-50 23q-38 0 -57.5 -31t-19.5 -94q0 -81 22 -122q21 -41 119 -99q281 -167 354 -274t73 -345q0 -173 -40.5 -255t-156.5 -137.5t-270 -55.5q-169 0 -288.5 64t-156.5 163t-37 281v106h391v-197q0 -91 16.5 -117t58.5 -26t62.5 33
t20.5 98q0 143 -39 187q-40 44 -197 147q-157 104 -208 151t-84.5 130t-33.5 212q0 186 47.5 272t153.5 134.5t256 48.5q164 0 279.5 -53t153 -133.5t37.5 -273.5v-64zM396 -72h272v-84q0 -322 -272 -379v117q58 35 67 90h-67v256z" />
    <glyph glyph-name="uni0219" unicode="&#x219;" horiz-adv-x="964" 
d="M897 903h-358v72q0 92 -10.5 116.5t-52.5 24.5q-34 0 -51 -22.5t-17 -67.5q0 -61 8.5 -89.5t51 -62.5t174.5 -99q176 -86 231 -162t55 -221q0 -162 -42 -244.5t-140.5 -127t-237.5 -44.5q-154 0 -263.5 48t-150.5 130t-41 248v64h358v-84q0 -107 13.5 -139t53.5 -32
q43 0 60 21.5t17 90.5q0 95 -22 119q-23 24 -235 142q-178 100 -217 181.5t-39 193.5q0 159 42 234.5t142.5 116.5t233.5 41q132 0 224.5 -33.5t142 -88.5t60 -102t10.5 -147v-77zM356 -72h272v-84q0 -322 -272 -379v117q58 35 67 90h-67v256z" />
    <glyph glyph-name="uni021A" unicode="&#x21a;" horiz-adv-x="944" 
d="M932 1619v-324h-250v-1295h-421v1295h-249v324h920zM336 -80h272v-84q0 -322 -272 -379v117q58 35 67 90h-67v256z" />
    <glyph glyph-name="uni021B" unicode="&#x21b;" horiz-adv-x="624" 
d="M498 1504v-209h109v-210h-109v-710q0 -131 13.5 -146t112.5 -15v-214h-163q-138 0 -197 11.5t-104 53t-56 95t-11 251.5v674h-87v210h87v209h405zM206 -80h272v-84q0 -322 -272 -379v117q58 35 67 90h-67v256z" />
    <glyph glyph-name="glyph665" horiz-adv-x="561" 
d="M488 1619v-211h-416v211h416zM488 1327v-1327h-416v1327h416zM626 1941l-329 -271h-203l176 271h356z" />
    <glyph glyph-name="dotlessj" unicode="&#x237;" horiz-adv-x="573" 
d="M500 1327v-1051q0 -227 -13 -287.5t-80 -117.5t-257 -57h-156v213q69 0 79.5 13t10.5 202v1085h416z" />
    <glyph glyph-name="c.breve" horiz-adv-x="682" 
d="M625 1716q-7 -139 -82.5 -220t-200.5 -81q-129 0 -203.5 80.5t-81.5 220.5h170q13 -137 115 -137q100 0 113 137h170z" />
    <glyph glyph-name="commaaccentrotate" horiz-adv-x="344" 
d="M36 1417v145q0 114 27.5 187t94 124t149.5 68v-116q-59 -34 -67 -91h67v-317h-271z" />
    <glyph glyph-name="caroncommaaccent" horiz-adv-x="344" 
d="M36 1620h272v-84q0 -322 -272 -379v117q58 35 67 90h-67v256z" />
    <glyph glyph-name="A.sup" horiz-adv-x="520" 
d="M406 1620l120 -809h-217l-10 145h-76l-12 -145h-217l106 809h306zM293 1100q-13 109 -31 340q-25 -174 -41 -340h72z" />
    <glyph glyph-name="B.sup" horiz-adv-x="565" 
d="M43 1620h209q173 0 219.5 -57t46.5 -174q0 -74 -23 -100t-87 -42q124 -21 124 -172v-74q0 -127 -44.5 -158.5t-200.5 -31.5h-244v809zM254 1300q30 6 49 6.5t19 98.5q0 49 -9.5 63t-58.5 13v-181zM254 948q49 3 58.5 19.5t9.5 56.5v76q0 56 -11.5 64t-56.5 12v-228z" />
    <glyph glyph-name="C.sup" horiz-adv-x="567" 
d="M532 1268h-210v141q0 55 -6 73.5t-29 18.5q-24 0 -32.5 -14t-8.5 -84v-377q0 -72 9.5 -83t29.5 -11q18 0 27.5 12.5t9.5 89.5v101h210v-31q0 -134 -20 -184t-78.5 -87.5t-146.5 -37.5q-144 0 -198 67.5t-54 237.5v235q0 124 17 172.5t74 89.5t155 41q90 0 147.5 -32
t80.5 -82t23 -178v-78z" />
    <glyph glyph-name="D.sup" horiz-adv-x="567" 
d="M43 1620h158q161 0 224 -19.5t84 -70.5t21 -195v-284q0 -134 -17 -166t-51.5 -53t-154.5 -21h-264v809zM254 948q50 0 57.5 25.5t7.5 93.5v313q0 79 -11.5 90t-53.5 11v-533z" />
    <glyph glyph-name="E.sup" horiz-adv-x="426" 
d="M43 1620h350v-162h-139v-153h131v-154h-131v-178h154v-162h-365v809z" />
    <glyph glyph-name="F.sup" horiz-adv-x="408" 
d="M43 1620h356v-162h-145v-153h129v-154h-129v-340h-211v809z" />
    <glyph glyph-name="G.sup" horiz-adv-x="563" 
d="M524 1323h-211v74q0 66 -5.5 85t-28.5 19q-20 0 -26.5 -15t-6.5 -77v-389q0 -59 7.5 -73.5t27.5 -14.5t29 15.5t9 78.5v96h-40v123h245v-434h-133l-18 59q-43 -75 -131 -75q-69 0 -121.5 39.5t-69 88t-16.5 167.5v239q0 148 21.5 194t77.5 80.5t138 34.5q71 0 129.5 -26
t90.5 -74t32 -180v-35z" />
    <glyph glyph-name="H.sup" horiz-adv-x="567" 
d="M526 1620v-809h-211v340h-63v-340h-211v809h211v-289h63v289h211z" />
    <glyph glyph-name="I.sup" horiz-adv-x="295" 
d="M252 1620v-809h-211v809h211z" />
    <glyph glyph-name="J.sup" horiz-adv-x="340" 
d="M299 1620v-641q0 -101 -36.5 -134.5t-147.5 -33.5h-105v141l16 -2q37 -5 50.5 14t13.5 87v569h209z" />
    <glyph glyph-name="K.sup" horiz-adv-x="549" 
d="M543 1620l-121 -365l133 -444h-217l-86 346v-346h-211v809h211v-315l94 315h197z" />
    <glyph glyph-name="L.sup" horiz-adv-x="389" 
d="M254 1620v-647h127v-162h-338v809h211z" />
    <glyph glyph-name="M.sup" horiz-adv-x="733" 
d="M690 1620v-809h-182v547l-74 -547h-131l-78 532v-532h-184v809h272q7 -37 13 -80t14 -92l29 -207l47 379h274z" />
    <glyph glyph-name="N.sup" horiz-adv-x="555" 
d="M512 1620v-809h-184l-109 367v-367h-176v809h176l117 -365v365h176z" />
    <glyph glyph-name="O.sup" horiz-adv-x="559" 
d="M524 1147q0 -158 -13.5 -211.5t-71.5 -97t-158 -43.5q-98 0 -155.5 40.5t-73 94t-15.5 217.5v139q0 165 13 214t70.5 93.5t160.5 44.5q96 0 152 -40t73.5 -89.5t17.5 -222.5v-139zM313 1413q0 58 -6.5 73t-25.5 15q-15 0 -24 -12t-9 -76v-379q0 -62 3 -82t28 -20
q23 0 28.5 19t5.5 89v373z" />
    <glyph glyph-name="P.sup" horiz-adv-x="514" 
d="M43 1620h211q162 0 202 -51.5t40 -175.5v-70q0 -92 -32.5 -139t-154.5 -47h-55v-326h-211v809zM254 1276h14q29 0 40 13.5t11 58.5v67q0 42 -12.5 54t-52.5 12v-205z" />
    <glyph glyph-name="Q.sup" horiz-adv-x="559" 
d="M524 811v-98h-159q-79 0 -98 16.5t-23 81.5q-111 3 -159 67t-48 224v250q0 107 19 158.5t73 88.5t143 37q95 0 154 -37.5t78.5 -89t19.5 -151.5v-264q0 -134 -24 -178t-107 -64q2 -27 9 -34t49 -7h73zM313 1411q0 55 -5 71.5t-27 16.5q-15 0 -24 -11t-9 -77v-377
q0 -82 6.5 -93t24.5 -11q20 0 27 15.5t7 94.5v371z" />
    <glyph glyph-name="R.sup" horiz-adv-x="553" 
d="M43 1620h150q165 0 212.5 -15t77 -60.5t29.5 -145.5q0 -99 -25 -130t-90 -36q64 -16 86 -43.5t25.5 -48.5t3.5 -117v-213h-195v268q0 69 -13 83t-50 14v-365h-211v809zM254 1300q43 0 53 16.5t10 57.5v45q0 38 -14 50t-49 12v-181z" />
    <glyph glyph-name="S.sup" horiz-adv-x="530" 
d="M489 1376h-196v60q0 42 -6.5 53.5t-26.5 11.5q-39 0 -39 -63q0 -44 14 -63.5t58 -47.5q126 -75 169.5 -126.5t43.5 -182.5q0 -116 -54.5 -169.5t-179.5 -53.5q-87 0 -147.5 33t-77 83t-16.5 138v53h196v-98q0 -48 8 -60t29 -12q41 0 41 65q0 72 -19 93.5t-98 72.5
q-100 65 -131.5 110.5t-31.5 137.5q0 140 65 183.5t164 43.5q88 0 144 -29.5t73.5 -69.5t17.5 -130v-33z" />
    <glyph glyph-name="T.sup" horiz-adv-x="473" 
d="M467 1620v-162h-125v-647h-211v647h-125v162h461z" />
    <glyph glyph-name="U.sup" horiz-adv-x="561" 
d="M520 1622v-543q0 -122 -16 -166t-68.5 -81t-146.5 -37q-103 0 -163 41t-73.5 89t-13.5 218v479h211v-608q0 -55 6.5 -68.5t22.5 -13.5q18 0 25 13.5t7 78.5v598h209z" />
    <glyph glyph-name="V.sup" horiz-adv-x="535" 
d="M541 1620l-107 -809h-319l-121 809h221q37 -312 55 -565l49 565h222z" />
    <glyph glyph-name="W.sup" horiz-adv-x="834" 
d="M834 1620l-93 -809h-264q-39 214 -63 424q-10 -84 -58 -424h-262l-94 809h205l43 -555q15 249 59 555h219q8 -72 23 -266l22 -310q24 349 60 576h203z" />
    <glyph glyph-name="X.sup" horiz-adv-x="494" 
d="M469 1620l-74 -358l111 -451h-195q-37 132 -63 295q-16 -125 -23 -164l-20 -131h-205l76 451l-76 358h205l43 -221l45 221h176z" />
    <glyph glyph-name="Y.sup" horiz-adv-x="485" 
d="M492 1620l-154 -516v-293h-195v293l-149 516h194q47 -241 52 -320q13 115 57 320h195z" />
    <glyph glyph-name="Z.sup" horiz-adv-x="406" 
d="M393 1620v-162l-157 -485h157v-162h-387v117l162 530h-143v162h368z" />
    <glyph glyph-name="A.int" horiz-adv-x="780" 
d="M608 1174l183 -1174h-326l-14 219h-115l-19 -219h-327l162 1174h456zM440 434q-34 294 -47 469q-52 -368 -59 -469h106z" />
    <glyph glyph-name="B.int" horiz-adv-x="848" 
d="M63 1174h316q247 0 323 -76.5t76 -257.5q0 -102 -33 -143.5t-133 -63.5q128 -29 158.5 -92t30.5 -158v-107q0 -181 -70.5 -228.5t-302.5 -47.5h-365v1174zM379 711l60 6q19 3 27 10.5t13.5 40.5t5.5 92q0 73 -17.5 91t-88.5 20v-260zM379 201q74 4 90 22t16 88v109
q0 69 -15 87t-91 21v-327z" />
    <glyph glyph-name="C.int" horiz-adv-x="852" 
d="M797 662h-316v202q0 85 -8 109t-45 24q-36 0 -47.5 -19.5t-11.5 -121.5v-545q0 -94 9.5 -115.5t47.5 -21.5q32 0 43.5 20.5t11.5 127.5v147h316v-45q0 -164 -25.5 -248.5t-120.5 -143.5t-221 -59q-139 0 -228.5 50t-119 139t-29.5 254v344q0 167 24.5 242t111.5 134.5
t231 59.5q122 0 213 -43.5t127.5 -121t36.5 -259.5v-110z" />
    <glyph glyph-name="D.int" horiz-adv-x="850" 
d="M63 1174h236q221 0 303.5 -20t125 -67t55 -104t12.5 -238v-385q0 -170 -22 -233t-85.5 -95t-226.5 -32h-398v1174zM379 207q68 0 84 28t16 150v430q0 108 -17 129t-83 21v-758z" />
    <glyph glyph-name="E.int" horiz-adv-x="639" 
d="M63 1174h527v-244h-211v-209h196v-232h-196v-245h231v-244h-547v1174z" />
    <glyph glyph-name="F.int" horiz-adv-x="612" 
d="M63 1174h535v-244h-219v-230h196v-231h-196v-469h-316v1174z" />
    <glyph glyph-name="G.int" horiz-adv-x="846" 
d="M788 727h-317v109q0 104 -7.5 130.5t-43.5 26.5q-32 0 -40.5 -21t-8.5 -112v-559q0 -73 8 -101t43 -28q38 0 48.5 32.5t10.5 104.5v140h-63v176h370v-627h-200l-29 86q-65 -111 -197 -111q-101 0 -183 61t-104 136.5t-22 230.5v351q0 207 31.5 276.5t115.5 119.5t210 50
q121 0 213.5 -47t128.5 -124t36 -247v-53z" />
    <glyph glyph-name="H.int" horiz-adv-x="852" 
d="M791 1174v-1174h-318v489h-94v-489h-316v1174h316v-414h94v414h318z" />
    <glyph glyph-name="I.int" horiz-adv-x="442" 
d="M379 1174v-1174h-316v1174h316z" />
    <glyph glyph-name="J.int" horiz-adv-x="508" 
d="M449 1174v-771q0 -218 -6 -257.5t-33 -74.5t-75.5 -53t-162.5 -18h-158v213l24 -2q85 -7 93 55l2 36v872h316z" />
    <glyph glyph-name="K.int" horiz-adv-x="825" 
d="M815 1174l-180 -527l199 -647h-326l-129 500v-500h-316v1174h316v-453l141 453h295z" />
    <glyph glyph-name="L.int" horiz-adv-x="584" 
d="M379 1174v-930h192v-244h-508v1174h316z" />
    <glyph glyph-name="M.int" horiz-adv-x="1102" 
d="M1036 1174v-1174h-274v780l-111 -780h-196l-115 760v-760h-277v1174h408q9 -54 39 -259l43 -309l72 568h411z" />
    <glyph glyph-name="N.int" horiz-adv-x="834" 
d="M768 1174v-1174h-276l-164 551v-551h-265v1174h265l176 -547v547h264z" />
    <glyph glyph-name="O.int" horiz-adv-x="840" 
d="M784 504q0 -235 -17 -314.5t-106.5 -148t-240.5 -68.5q-147 0 -234 63.5t-110 146.5t-23 321v166q0 241 22.5 321.5t108 143.5t236.5 63q147 0 234 -63.5t108.5 -141t21.5 -323.5v-166zM469 860q0 70 -7 101.5t-40 31.5q-28 0 -39.5 -21t-11.5 -112v-524
q0 -103 7.5 -129.5t39.5 -26.5q33 0 42 31t9 133v516z" />
    <glyph glyph-name="P.int" horiz-adv-x="772" 
d="M63 1174h318q175 0 247 -38.5t93.5 -97t21.5 -192.5v-105q0 -146 -55.5 -207t-222.5 -61h-86v-473h-316v1174zM379 674h24q43 0 59.5 20.5t16.5 85.5v97q0 59 -18 76.5t-82 17.5v-297z" />
    <glyph glyph-name="Q.int" horiz-adv-x="840" 
d="M784 0v-147h-237q-120 0 -148 24.5t-32 122.5q-98 2 -177 50t-108 127.5t-29 260.5v334q0 153 29 233t110 136.5t216 56.5q132 0 221 -50.5t122 -125.5t33 -242v-354q0 -203 -36 -267.5t-158 -97.5q1 -36 12 -48.5t74 -12.5h108zM469 860q0 70 -7 101.5t-40 31.5
q-28 0 -39.5 -21t-11.5 -112v-524q0 -103 7.5 -129.5t39.5 -26.5q33 0 42 31t9 133v516z" />
    <glyph glyph-name="R.int" horiz-adv-x="827" 
d="M63 1174h224q238 0 316 -22t121.5 -90t43.5 -210q0 -141 -38.5 -187t-135.5 -51q98 -25 130 -65.5t38 -73t6 -166.5v-309h-293v403q0 90 -13.5 117t-82.5 27v-547h-316v1174zM379 721q60 0 78 20t18 90v68q0 53 -17 72.5t-79 19.5v-270z" />
    <glyph glyph-name="S.int" horiz-adv-x="795" 
d="M733 817h-293v90q0 58 -10.5 75t-38.5 17q-59 0 -59 -90q0 -67 21.5 -96t84.5 -65q225 -125 273.5 -207t48.5 -240q0 -125 -34.5 -190.5t-123.5 -101.5t-192 -36q-115 0 -199 34.5t-124 103.5t-40 231v78h293v-144q0 -65 12 -83.5t45 -18.5q62 0 62 94q0 93 -25 128
t-153 114q-160 103 -202 167.5t-42 190.5q0 137 34.5 198t115 96.5t192.5 35.5q129 0 212 -38.5t112.5 -94t29.5 -201.5v-47z" />
    <glyph glyph-name="T.int" horiz-adv-x="709" 
d="M698 1174v-244h-186v-930h-317v930h-185v244h688z" />
    <glyph glyph-name="U.int" horiz-adv-x="840" 
d="M780 1174v-771q0 -141 -7.5 -191.5t-47 -109t-112.5 -94t-181 -35.5t-190.5 30t-129.5 103.5t-50 159t-3 230.5v678h316v-869q0 -84 9 -104.5t34 -20.5q30 0 38.5 22t8.5 117v855h315z" />
    <glyph glyph-name="V.int" horiz-adv-x="803" 
d="M813 1174l-160 -1174h-479l-184 1174h334l22 -193q45 -391 62 -635q29 428 51 643l20 185h334z" />
    <glyph glyph-name="W.int" horiz-adv-x="1251" 
d="M1251 1174l-141 -1174h-393q-52 259 -96 637l-89 -637h-391l-141 1174h307l66 -832q15 306 86 832h329q2 -14 33 -400l37 -463q24 436 86 863h307z" />
    <glyph glyph-name="X.int" horiz-adv-x="741" 
d="M705 1174l-111 -517l166 -657h-293q-58 206 -96 442q-20 -168 -33 -243l-31 -199h-307l115 657l-115 517h305l66 -332l67 332h267z" />
    <glyph glyph-name="Y.int" horiz-adv-x="745" 
d="M756 1174l-230 -775v-399h-313v399l-223 775h303q74 -378 78 -480q22 187 88 480h297z" />
    <glyph glyph-name="Z.int" horiz-adv-x="610" 
d="M592 1174v-244l-238 -686h238v-244h-582v176l242 754h-215v244h555z" />
    </font>
</defs>
</svg>
